#TITLE:HEAVEN IS A PLACE ON EARTH;
#SUBTITLE:(German Election Mix);
#ARTIST:JULIA;
#BANNER:HEAVEN IS A PLACE ON EARTH (German Election Mix).png;
#BACKGROUND:HEAVEN IS A PLACE ON EARTH (German Election Mix)-bg.png;
#CDTITLE:./CDTITLES/Dancemania COVERS01.png;
#MUSIC:HEAVEN IS A PLACE ON EARTH (German Election Mix).ogg;
#SAMPLESTART:1.591;
#SAMPLELENGTH:15;
#DISPLAYBPM:140;
#BPMS:0=141;
#BGCHANGES:3.75=HEAVEN IS A PLACE ON EARTH (German Election Mix).avi=1=1=0=0;

//---------------dance-single - ----------------
#NOTES:
     dance-single:
     :
     Beginner:
     1:
     :
0000
0000
0000
0000
,
0000
0000
0000
0000
,
0000
0000
0000
0000
,
0000
0000
0000
0000
,
0000
0000
0000
0000
,
0001
0000
0000
0000
,
1000
0000
0000
0000
,
0020
0000
0030
0000
,
0010
0010
0010
0000
,
1000
0000
0000
0000
,
0100
0000
0000
0000
,
0020
0000
0030
0000
,
0010
0010
0010
0000
,
0001
0000
0000
0000
,
1000
0000
0000
0000
,
0001
0000
0001
0000
,
0001
0001
0001
0000
,
1001
0000
0000
0000
,
2000
0000
3000
0000
,
1000
1000
0000
0000
,
0002
0000
0003
0000
,
0001
0001
0000
0000
,
0200
0000
0300
0000
,
0100
0100
0000
0000
,
0020
0000
0030
0000
,
0010
0010
0000
0000
,
0110
0000
0000
0000
,
1000
0000
1000
0000
,
0001
0000
0001
0000
,
1000
0000
1000
0000
,
0010
0000
0010
0000
,
0100
0000
0100
0000
,
0001
0000
0001
0000
,
0001
0001
0001
0000
,
1001
0000
0000
0000
,
1000
1000
0000
0000
,
0001
0001
0000
0000
,
0100
0100
0000
0000
,
0010
0010
0000
0000
,
0010
0010
0000
0000
,
0100
0100
0000
0000
,
1000
1000
0000
0000
,
1001
0000
0000
0000
,
0002
0000
0003
0000
,
2000
0000
3000
0000
,
0002
0000
0003
0000
,
0010
0000
0010
0000
,
0100
0000
0100
0000
,
0010
0000
0010
0000
,
0001
0000
0001
0000
,
1000
0000
1000
0000
,
1000
0000
1000
0000
,
0010
0000
0010
0000
,
0100
0000
0100
0000
,
0100
0000
0000
0000
;

//---------------dance-single - ----------------
#NOTES:
     dance-single:
     :
     Easy:
     4:
     :
0000
0000
0000
0000
,
0000
0000
0000
0000
,
0000
0000
0000
0000
,
0000
0000
0000
0000
,
0000
0000
0000
0000
,
0002
0000
0000
0003
,
2000
0000
0000
3001
,
0002
0000
0000
0003
,
2000
0000
0000
3010
,
0100
0100
0010
0000
,
0100
0100
0010
0000
,
1000
0001
1000
0100
,
0010
0001
1000
0000
,
0001
0001
0001
0000
,
1000
1000
1000
0000
,
0010
1000
0100
0010
,
0010
0010
0100
0010
,
0220
0000
0330
0000
,
1000
0010
1000
0001
,
0100
0010
1000
0000
,
0010
1000
0100
0001
,
0100
1000
0001
0000
,
0001
0100
0001
1000
,
0001
0010
0100
0000
,
0100
0010
0100
1000
,
0010
1000
0001
0100
,
0002
0003
0001
1000
,
0002
0003
0001
1000
,
0020
0030
0010
1000
,
0200
0300
0100
1000
,
0020
0030
0010
0100
,
0200
0300
0100
0001
,
0002
0003
0001
1000
,
2000
3000
1000
0010
,
0020
0030
0010
1000
,
0001
0010
0100
1000
,
0002
0003
0001
1000
,
0010
1000
0100
0010
,
0020
0030
0100
0010
,
0001
1000
0001
0100
,
0020
0030
0010
1000
,
0001
0100
0010
1000
,
1000
0001
1000
0000
,
0001
1000
0001
0000
,
1000
0100
0010
0000
,
0010
0001
0010
0000
,
0001
1000
0001
0100
,
0001
1000
0100
0010
,
0001
0000
0001
0000
,
1000
0000
1000
0000
,
0010
1000
0100
0010
,
0001
0010
0100
1000
,
0001
0001
1000
1000
,
0001
0000
0001
1000
,
1001
0000
0000
0000
;

//---------------dance-single - ----------------
#NOTES:
     dance-single:
     :
     Medium:
     6:
     :
0000
0000
0000
0000
,
0000
0000
0000
0000
,
0000
0000
0000
0000
,
0000
0000
0000
0000
,
0000
0000
0000
0000
,
0001
1000
0100
1000
,
0010
0010
0010
0000
,
1000
0001
0010
0100
,
1000
0001
1000
0000
0010
0000
1010
0000
,
0010
1000
0001
1000
,
0001
0010
0100
0000
1000
0000
1001
0000
,
0001
1000
0001
0100
,
0010
1000
0100
0000
0010
0000
0011
0000
,
0001
0001
1000
0100
,
0010
0001
0100
0000
0001
0000
0101
0000
,
0100
0010
1000
0010
,
1010
0011
2002
3003
,
0220
0000
0330
0000
,
1000
0000
1000
0000
0001
0100
1000
0000
,
0100
0000
0100
0000
0001
0010
0100
1000
,
0010
0010
0100
0100
,
0002
0000
1000
1003
,
0001
0000
0001
0000
1000
0010
1000
0000
,
0100
0000
0100
0000
0010
0001
1000
0001
,
0100
0100
0001
0001
,
2000
0000
0100
3100
,
0010
0001
1000
0000
0010
1000
1010
0000
,
0010
1000
0001
0000
0010
0001
0011
0000
,
1001
0000
0000
0110
,
0010
1000
0100
1000
0010
0100
0001
0000
,
0001
1000
0100
0000
1000
0100
1100
0000
,
1000
0001
0100
0000
0001
0100
0101
0000
,
0001
0010
1000
0000
1000
0010
0001
0000
,
0001
0100
0010
0100
0010
1000
0001
1000
,
0002
0000
1000
0000
0100
0000
1003
0100
,
0020
0000
0001
0000
0100
0000
0031
1000
,
0200
0000
1000
0000
0010
0000
1300
0001
,
2000
3000
0000
0110
,
2000
0000
0001
0000
0010
0000
3001
0010
,
0002
0000
1000
0000
0100
0000
1003
0010
,
2000
0010
0010
3010
,
1010
0000
0000
0000
,
0001
0100
1000
0000
0001
0100
1000
0000
,
0100
0001
1000
0000
0010
1000
0100
0000
,
1000
0001
0100
0000
0001
0010
1000
0000
,
0001
1000
0010
0000
0100
0001
0101
0000
,
0000
1000
0000
0010
0000
1000
0010
1010
,
0000
0001
0000
1000
0000
0100
1000
1100
,
0000
1000
0000
0001
0000
0010
0001
0011
,
0000
0001
0000
1000
0000
0010
1000
1001
,
0001
1000
0010
1000
,
0002
1003
0020
0130
,
0020
1030
0200
1300
,
0001
1000
0001
1000
,
1010
0000
0000
0000
;

//---------------dance-single - ----------------
#NOTES:
     dance-single:
     :
     Hard:
     8:
     :
0000
0000
0000
0000
,
0000
0000
0000
0000
,
0000
0000
0000
0000
,
0000
0000
0000
0000
,
0000
0000
0000
0000
,
1000
0000
0010
0100
0000
0001
0010
0100
,
0020
0032
2003
3000
,
0001
0000
0010
0100
0000
1000
0010
0100
,
0020
2030
3002
1003
,
1001
0000
0000
0100
0000
0000
1000
0000
0000
0010
0000
0000
0200
0000
0000
0000
,
0000
0000
0300
0110
,
0001
0000
0000
0010
0000
0000
0100
0000
0000
1000
0000
0000
0020
0000
0000
0000
,
0000
0000
0030
0110
,
1000
0000
0000
0100
0000
0000
0010
0000
0000
0001
0000
0000
0200
0000
0000
0000
,
0000
0000
0300
0110
,
0001
0000
0000
0100
0000
0000
0010
0000
0000
1000
0000
0000
0100
0000
0010
0000
,
0100
0000
0000
1000
0000
0000
0010
0000
0000
0100
0000
0000
1001
0000
0100
0000
,
2002
0000
0000
3003
,
0100
0000
0000
0001
0000
0000
0010
0000
0000
1000
0000
0000
0010
0000
0001
0000
,
1000
0000
0000
0010
0000
0000
0100
0001
0000
1000
0000
0100
1000
0000
0100
0000
,
0010
0000
0000
0001
0000
0000
0100
0000
0000
1000
0000
0000
0100
0000
0001
0000
,
1000
0000
0000
0100
0000
0000
0010
0001
0000
1000
0000
0010
1000
0000
0010
0000
,
0100
0000
0000
0001
0000
0000
0010
0000
0000
0100
0000
0000
1000
0000
0001
0000
,
1000
0000
0000
0010
0000
0000
0100
0001
0000
0010
0000
0100
1000
0000
0001
0000
,
1000
0000
0000
0100
0000
0000
0010
0000
0000
0001
0000
0000
0100
0000
0001
0000
,
0101
0011
1100
1010
,
0001
0000
0000
1000
0000
0000
0100
0000
0000
0001
0000
0000
0100
0000
1000
0000
,
0001
0000
0000
0100
0000
0000
0010
1000
0000
0001
0000
0010
0001
0000
0010
0000
,
0100
0000
0000
1000
0000
0000
0010
0000
0000
0001
0000
0000
0010
0000
1000
0000
,
0001
0000
0000
0010
0000
0000
0100
1000
0000
0001
0000
0100
0001
0000
0100
0000
,
0010
0000
0000
1000
0000
0000
0100
0000
0000
0010
0000
0000
0001
0000
1000
0000
,
0001
0000
0000
0100
0000
0000
0010
1000
0000
0100
0000
0010
0001
0000
1000
0000
,
0001
0000
0000
0010
0000
0000
0100
0000
0000
1000
0000
0000
0010
0000
1000
0000
,
0010
0100
0001
1000
0001
0000
1001
0000
,
0001
0100
1000
0100
0001
0100
1000
0100
,
0001
1000
0001
0100
0001
1000
0001
0100
,
0001
0010
1000
0010
0001
0010
1000
0010
,
0001
1000
0001
0010
0001
1000
0001
0010
,
0100
1000
0100
0001
0100
1000
0100
0001
,
0100
1000
0010
1000
0100
1000
0010
1000
,
0100
0001
0100
1000
0010
0001
0010
1000
,
0100
0001
0100
1000
0010
0100
0001
0010
,
0120
0000
0000
0100
0000
0000
0100
0000
0000
0100
0000
0000
0130
0000
1000
0000
,
0002
0000
0000
1000
0000
0000
1000
0000
0000
1000
0000
0000
1003
0000
0010
0000
,
0200
0000
0000
0010
0000
0000
0010
0000
0000
0010
0000
0000
0310
0000
0100
0000
,
0001
0100
1000
0100
0001
0100
0010
1000
,
0001
1000
0100
0000
1000
0010
0100
0001
,
1000
0001
0010
0000
0100
1000
0010
0100
,
0010
0001
0010
0000
1000
0100
0010
0001
,
0010
1000
0010
0000
0001
0100
0010
1000
,
1001
0000
0101
0000
0010
0100
0001
0010
,
0110
0000
1100
0000
0010
0100
1000
0010
,
0110
0000
1001
0000
0100
1000
0001
0010
,
0110
0000
1001
0000
0100
0001
1000
0010
,
1001
0000
0000
0000
;

//---------------dance-single - ----------------
#NOTES:
     dance-single:
     :
     Challenge:
     9:
     :
0000
0000
0000
0000
,
0000
0000
0000
0000
,
0000
0000
0000
0000
,
0000
0000
0000
0000
,
0000
0000
0000
0000
,
0001
0000
0010
0000
0001
0000
0000
0000
0010
0000
0000
0001
1000
0000
0000
0000
,
0010
0000
0100
0000
0010
0000
0000
0000
1000
0000
0000
0001
0100
0000
0000
0000
,
0010
1000
0010
0000
0001
0100
0001
0000
,
1000
0000
0100
0000
1000
0000
0000
0000
0010
0000
0000
0100
0001
0000
0000
0000
,
1000
0000
0000
0001
0000
0000
0010
0000
0000
0100
0000
0000
1000
0000
0100
0000
,
0001
0000
0100
0000
1000
0000
0000
0000
1000
0000
0000
0010
0100
0000
0000
0000
,
0001
0000
0000
1000
0000
0000
0001
0000
0000
0100
0000
0000
1000
0000
0100
0000
,
0001
0000
0100
0000
0010
0000
0000
0000
0100
0000
0000
0001
1000
0000
0000
0000
,
0010
0000
0000
1000
0000
0000
0001
0000
0000
1000
0000
0000
0010
0000
1000
0000
,
0100
1100
0011
0000
,
0001
0100
0010
1000
0001
0010
0100
1000
,
0010
0100
1000
0100
0001
0000
0110
0000
,
2002
0000
0000
0000
3003
0000
0000
0110
,
0010
0100
0000
0000
0001
0000
0000
0000
1000
0000
0100
0000
0010
0000
0000
0000
,
1000
0100
0000
0000
1000
0000
0000
0000
0001
0000
0100
0000
0010
0000
0000
0000
,
1000
0001
0000
0000
1000
0000
0000
0000
0001
1000
0000
0000
0001
0000
0000
0000
,
1000
0100
0000
0000
0010
0000
0000
0000
0001
0000
0100
0000
1000
0000
0100
0000
,
0001
0100
0000
0000
0100
0000
0000
0000
0001
0000
0100
0000
0001
0000
1000
0000
,
0100
0010
0000
0000
0001
0000
0000
0000
1000
0000
0010
0000
0100
0000
0010
0000
,
1000
0100
0000
0000
0010
0000
0000
0000
0001
0100
0000
0000
0010
0000
0000
0000
,
1010
0101
1001
0011
,
0001
0000
0000
0010
0000
0000
0100
0000
0000
1000
0000
0000
0010
0000
0100
0000
,
0001
0000
0000
1000
0000
0000
0001
0000
0000
0100
0000
0000
0010
0000
1000
0000
,
0100
0000
0000
1000
0000
0000
0001
0000
0000
0100
0000
0000
0001
0000
0100
0000
,
1000
0000
0000
0100
0000
0000
1000
0000
0000
0100
0000
0000
0010
0000
1000
0000
,
0001
0000
0000
1000
0000
0000
0100
0000
0000
1000
0000
0000
0001
0000
0010
0000
,
0001
0000
0000
0100
0000
0000
0010
0000
0000
0100
0001
0000
0010
0000
0100
0000
,
1000
0000
0000
0010
0000
0000
1000
0000
0000
0001
0000
0000
0100
0000
0001
0000
,
0100
0010
1000
0001
1000
0000
1100
0000
,
0010
0001
0010
0000
0100
0000
0100
0000
1000
0010
1000
0000
0001
0000
0001
0000
,
1000
0100
1000
0000
0001
0000
0001
0000
1000
0000
0010
0000
1000
0000
0100
0000
,
0010
0100
0010
0000
0001
0000
0001
0000
0100
0001
0100
0000
0010
0000
1000
0000
,
0100
1000
0100
0000
1000
0000
0010
0000
1000
0000
0001
0000
0100
0000
0001
0000
,
0010
0001
0010
0000
0001
0000
0001
0000
1000
0010
1000
0000
0100
0000
0010
0000
,
0100
1000
0100
0000
0010
0000
0010
0000
0001
0000
1000
0000
0010
0000
0100
0000
,
0001
1000
0001
0000
0101
0000
0000
0000
1000
0010
1000
0000
1010
0000
0000
0000
,
1000
0010
1000
0000
0001
0010
0001
0000
1000
0000
1000
0000
1000
0000
1000
0000
,
0210
0000
0000
0300
,
0001
0000
0000
0000
1000
0000
0000
0000
0001
0000
0000
1000
0001
0000
0100
0000
,
0001
0000
0000
0000
0010
0000
0000
0000
0100
0000
0000
1000
0001
0000
1000
0000
,
0010
0100
0001
0101
,
0000
1000
0000
0101
0000
0100
0001
0010
,
0100
1000
0000
1001
0000
0001
1000
0010
,
0100
0010
0000
1010
0000
1000
0001
0100
,
0001
0010
0000
0110
0000
0001
1000
0010
,
1000
0100
1100
0000
0001
0010
1000
0010
,
0001
0010
0110
0000
1000
0100
0001
0100
,
1000
0010
0011
0000
0010
1000
0010
0100
,
0010
0001
0011
0000
1000
0001
1000
0010
,
1001
0000
0000
0000
;

//---------------dance-double - ----------------
#NOTES:
     dance-double:
     :
     Easy:
     4:
     :
00000000
00000000
00000000
00000000
,
00000000
00000000
00000000
00000000
,
00000000
00000000
00000000
00000000
,
00000000
00000000
00000000
00000000
,
00000000
00000000
00000000
00000000
,
00000002
00000000
00000000
00000003
,
00000200
00000000
00000000
00000310
,
00020000
00000000
00000000
00030000
,
00002000
00000000
00000000
01003000
,
00100000
00100000
01000000
00000000
,
00010000
00010000
01000000
00000000
,
10000000
00010000
10000000
01000000
,
00010000
00000100
00000010
00000000
,
00000001
00000001
00000001
00000000
,
00000100
00000100
00000100
00000000
,
00000010
00010000
00001000
01000000
,
00100000
00100000
01000000
00100000
,
02200000
00000000
03300000
00000000
,
10000000
00010000
01000000
00010000
,
01000000
00001000
00010000
00000000
,
00000100
00000010
00000100
00001000
,
00000100
00010000
00001000
00000000
,
00100000
00010000
10000000
01000000
,
00010000
00001000
00000100
00000000
,
00000001
00000100
00000010
00001000
,
00000100
00010000
00001000
01000000
,
00020000
00030000
00010000
01000000
,
00200000
00300000
00100000
10000000
,
02000000
03000000
01000000
00100000
,
00002000
00003000
00001000
00010000
,
00000200
00000300
00000100
00001000
,
00000002
00000003
00000001
00000100
,
00000020
00000030
00000010
00001000
,
00000200
00000300
00000100
00010000
,
00002000
00003000
00001000
01000000
,
00100000
10000000
01000000
00010000
,
00000200
00000300
00000100
00000010
,
00000001
00001000
00000100
00000010
,
00000002
00000003
00000001
00000100
,
00001000
00010000
00100000
01000000
,
20000000
30000000
10000000
00010000
,
01000000
00001000
00010000
00000010
,
00001000
00000001
00001000
00000000
,
00000010
00000100
00000010
00000000
,
00010000
00001000
01000000
00000000
,
00100000
10000000
00100000
00000000
,
00010000
10000000
01000000
00010000
,
00001000
00000100
00000001
00000100
,
00000010
00000000
00000010
00000000
,
00010000
00000000
00010000
00000000
,
00001000
00100000
01000000
00100000
,
00010000
00100000
00001000
00010000
,
00000100
00000100
00000010
00000010
,
00000001
00000000
00000001
00001000
,
00001001
00000000
00000000
00000000
;

//---------------dance-double - ----------------
#NOTES:
     dance-double:
     :
     Medium:
     7:
     :
00000000
00000000
00000000
00000000
,
00000000
00000000
00000000
00000000
,
00000000
00000000
00000000
00000000
,
00000000
00000000
00000000
00000000
,
00000000
00000000
00000000
00000000
,
00001000
00010000
00000100
00000010
,
00000001
00000001
00000001
00000000
,
00000100
00010000
01000000
00100000
,
10000000
00100000
10000000
00000000
00010000
00000000
10010000
00000000
,
10000000
00010000
01000000
00001000
,
00010000
00001000
00000100
00000000
00000010
00000000
00000110
00000000
,
00000001
00000010
00000100
00001000
,
00000001
00000100
00001000
00000000
00010000
00000000
00011000
00000000
,
01000000
01000000
10000000
01000000
,
10000000
00010000
01000000
00000000
00001000
00000000
01001000
00000000
,
00010000
00000010
00001000
00000001
,
00000011
00001010
00002002
00003003
,
00000220
00000000
00000330
00000000
,
00000001
00000000
00000001
00000000
00000001
00000100
00001000
00000000
,
00010000
00000000
00010000
00000000
00001000
00010000
01000000
00100000
,
01000000
10000000
00010000
00010000
,
02000000
00000000
00100000
03100000
,
10000000
00000000
10000000
00000000
00010000
00100000
00010000
00000000
,
01000000
00000000
01000000
00000000
00001000
00010000
00000010
00000100
,
00000001
00000001
00001000
00001000
,
00000020
00000000
00000100
00000130
,
00000001
00000010
00001000
00000000
00000010
00000001
00000011
00000000
,
00000001
00001000
00000010
00000000
00010000
00001000
00011000
00000000
,
01010000
00000000
00000000
10100000
,
00100000
10000000
01000000
00010000
00001000
00000010
00000001
00000000
,
00000001
00000100
00000010
00000000
00000010
00001000
00001010
00000000
,
00010000
00001000
01000000
00000000
00100000
10000000
10100000
00000000
,
10000000
01000000
00100000
00000000
00100000
01000000
10000000
00000000
,
00010000
01000000
00001000
00010000
00000010
00001000
00000001
00000100
,
00000020
00000000
00001000
00000000
00000100
00000000
00001030
00000100
,
00020000
00000000
00001000
00000000
00000100
00000000
00031000
01000000
,
00200000
00000000
10000000
00000000
01000000
00000000
10300000
00010000
,
02000000
03000000
00000000
10010000
,
02000000
00000000
00010000
00000000
00100000
00000000
03010000
00100000
,
00002000
00000000
00010000
00000000
01000000
00000000
00013000
00000010
,
00000200
00000001
00000001
00000301
,
00000101
00000000
00000000
00000000
,
00000001
00000010
00001000
00000000
00000010
00000100
00001000
00000000
,
00000100
00010000
00001000
00000000
00010000
01000000
10000000
00000000
,
10000000
01000000
00010000
00000000
00001000
00000010
00000001
00000000
,
00000001
00000100
00000010
00000000
00000010
00001000
00001010
00000000
,
00000000
00010000
00000000
00001000
00000000
00100000
00010000
00110000
,
00000000
00010000
00000000
10000000
00000000
00100000
01000000
01100000
,
00000000
01000000
00000000
00001000
00000000
00010000
00001000
00011000
,
00000000
00000100
00000000
00000010
00000000
00000001
00000010
00000011
,
00000001
00001000
00000010
00000100
,
00000002
00001003
00000200
00010300
,
00002000
01003000
00020000
10030000
,
01000000
00010000
00000000
01000000
,
01100000
00000000
00000000
00000000
;

//---------------dance-double - ----------------
#NOTES:
     dance-double:
     :
     Hard:
     8:
     :
00000000
00000000
00000000
00000000
,
00000000
00000000
00000000
00000000
,
00000000
00000000
00000000
00000000
,
00000000
00000000
00000000
00000000
,
00000000
00000000
00000000
00000000
,
00000001
00000000
00001000
00000100
00000000
00000010
00001000
00000010
,
00000001
00000200
00002300
00003000
,
00010000
00000000
00001000
00010000
00000000
01000000
10000000
01000000
,
00010000
02000000
03200000
00310000
,
10010000
00000000
00000000
01000000
00000000
00000000
00010000
00000000
00000000
00001000
00000000
00000000
00000200
00000000
00000000
00000000
,
00000000
00000000
00000000
00000300
,
00000001
00000000
00000000
00000100
00000000
00000000
00001000
00000000
00000000
00010000
00000000
00000000
02000000
00000000
00000000
00000000
,
00000000
00000000
00000000
03000000
,
10000000
00000000
00000000
00100000
00000000
00000000
00010000
00000000
00000000
00001000
00000000
00000000
00000020
00000000
00000000
00000000
,
00000000
00000000
00000000
00000030
,
00000001
00000000
00000000
00000010
00000000
00000000
00001000
00000000
00000000
00010000
00000000
00000000
01000000
00000000
10000000
00000000
,
01000000
00000000
00000000
00010000
00000000
00000000
00001000
00000000
00000000
00000100
00000000
00000000
00000001
00000000
00001000
00000000
,
00002002
00000000
00000000
00003003
,
00000010
00001000
00000100
00001000
00000001
00000010
00001000
00000010
,
00000001
00000100
00001000
00010000
01000000
10000000
00100000
01000000
,
10000000
01000000
00100000
10000000
00010000
00100000
00010000
01000000
,
00001000
00010000
00001000
00000010
00001000
00010000
01000000
00100000
,
10000000
00100000
01000000
00010000
00001000
00000010
00000100
00001000
,
00000100
00000010
00000001
00000100
00000010
00001000
00000100
00010000
,
00001000
00010000
00000100
00001000
00000010
00000100
00001000
00010000
,
00011000
01010000
11000000
10100000
,
01000000
00000000
00000000
00010000
00000000
00000000
10000000
00000000
00000000
00010000
00000000
00000000
01000000
00000000
00100000
00000000
,
00010000
00000000
00000000
00001000
00000000
00000000
00010000
00000100
00000000
00001000
00000000
00000100
00010000
00000000
00001000
00000000
,
00000100
00000000
00000000
00000010
00000000
00000000
00000100
00000000
00000000
00000001
00000000
00000000
00000100
00000000
00000010
00000000
,
00001000
00000000
00000000
00000100
00000000
00000000
00010000
00001000
00000000
00100000
00000000
00001000
00010000
00000000
00001000
00000000
,
00000100
00000000
00000000
00001000
00000000
00000000
00010000
00000000
00000000
00100000
00000000
00000000
10000000
00000000
00010000
00000000
,
10000000
00000000
00000000
01000000
00000000
00000000
00100000
00010000
00000000
10000000
00000000
00010000
00100000
00000000
00010000
00000000
,
01000000
00000000
00000000
00100000
00000000
00000000
00010000
00000000
00000000
00001000
00000000
00000000
00010000
00000000
00001000
00000000
,
00010000
00000100
00001000
00000001
00001000
00000000
00001001
00000000
,
00000100
00001000
00000010
00001000
00000001
00000100
00001000
00000100
,
00000001
00000010
00001000
00010000
00100000
10000000
01000000
00100000
,
10000000
00100000
01000000
10000000
00010000
01000000
00010000
00100000
,
00001000
00010000
00001000
00000100
00001000
00010000
00100000
01000000
,
10000000
01000000
00100000
00010000
00001000
00000100
00000010
00001000
,
00000010
00000100
00000001
00000010
00000100
00001000
00000010
00010000
,
00001000
00010000
00000010
00001000
00000100
00000010
00001000
00010000
,
00001000
00100000
00010000
01000000
00100000
10000000
00010000
00100000
,
00210000
00000000
00000000
00010000
00000000
00000000
00010000
00000000
00000000
01000000
00000000
00000000
01300000
00000000
10000000
00000000
,
00020000
00000000
00000000
01000000
00000000
00000000
01000000
00000000
00000000
00100000
00000000
00000000
00130000
00000000
00001000
00000000
,
00020000
00000000
00000000
00001000
00000000
00000000
00001000
00000000
00000000
00000100
00000000
00000000
00030100
00000000
00001000
00000000
,
00000010
00000001
00000010
00001000
00000100
00000001
00000100
00001000
,
00000001
00000100
00000010
00000000
00001000
00000010
00000100
00000001
,
00000100
00001000
00010000
00000000
00001000
00010000
01000000
10000000
,
00100000
00010000
00100000
00000000
01000000
00010000
00100000
01000000
,
10000000
00010000
10000000
00000000
01000000
00010000
00001000
00010000
,
00011000
00000000
00001100
00000000
00000010
00000100
00001000
00000010
,
00000110
00000000
00001001
00000000
00000001
00000100
00001000
00010000
,
00011000
00000000
01010000
00000000
00100000
01000000
00010000
00100000
,
01100000
00000000
10010000
00000000
10000000
01000000
00010000
00001000
,
00011000
00000000
00000000
00000000
;

//---------------dance-double - ----------------
#NOTES:
     dance-double:
     :
     Challenge:
     9:
     :
00000000
00000000
00000000
00000000
,
00000000
00000000
00000000
00000000
,
00000000
00000000
00000000
00000000
,
00000000
00000000
00000000
00000000
,
00000000
00000000
00000000
00000000
,
00000001
00000000
00000100
00000000
00000001
00000000
00000000
00000000
00001000
00000000
00000000
00000010
00010000
00000000
00000000
00000000
,
00000100
00000000
00010000
00000000
00000100
00000000
00000000
00000000
00010000
00000000
00000000
00001000
01000000
00000000
00000000
00000000
,
00100000
10000000
01000000
00000000
00100000
00010000
01000000
00000000
,
00100000
00000000
10000000
00000000
00100000
00000000
00000000
00000000
01000000
00000000
00000000
00001000
00010000
00000000
00000000
00000000
,
00000100
00000000
00000000
00000010
00000000
00000000
00000001
00000000
00000000
00000100
00000000
00000000
00000001
00000000
00000100
00000000
,
00001000
00000000
00010000
00000000
00100000
00000000
00000000
00000000
10000000
00000000
00000000
00100000
01000000
00000000
00000000
00000000
,
00010000
00000000
00000000
10000000
00000000
00000000
01000000
00000000
00000000
00100000
00000000
00000000
00001000
00000000
00010000
00000000
,
00000100
00000000
00000010
00000000
00000001
00000000
00000000
00000000
00000100
00000000
00000000
00000001
00001000
00000000
00000000
00000000
,
00000001
00000000
00000000
00000100
00000000
00000000
00001000
00000000
00000000
00010000
00000000
00000000
00000010
00000000
00001000
00000000
,
00000100
00011000
00110000
00000000
,
00010000
10000000
01000000
00100000
00001000
00010000
00000010
00001000
,
00000100
00010000
00000100
00000010
00000001
00000000
00001001
00000000
,
00000220
00000000
00000000
00000000
00000330
00000000
00000000
00001010
,
00000010
00002000
00000000
00000000
00003100
00000000
00000000
00000000
00010000
00000000
00001000
00000000
01000000
00000000
00000000
00000000
,
00100000
20000000
00000000
00000000
31000000
00000000
00000000
00000000
10000000
00000000
01000000
00000000
00100000
00000000
00000000
00000000
,
00001000
00020000
00000000
00000000
00030100
00000000
00000000
00000000
00001000
00000002
00000000
00000000
00000103
00000000
00000000
00000000
,
00000010
00000200
00000000
00000000
00000301
00000000
00000000
00000000
00001000
00000000
00000100
00000000
00010000
00000000
00001000
00000000
,
01000000
00200000
00000000
00000000
10300000
00000000
00000000
00000000
00100000
00000000
10000000
00000000
01000000
00000000
00100000
00000000
,
00010000
02000000
00000000
00000000
03010000
00000000
00000000
00000000
10000000
00000000
00100000
00000000
01000000
00000000
00001000
00000000
,
00100000
02000000
00000000
00000000
03100000
00000000
00000000
00000000
00001000
00020000
00000000
00000000
00031000
00000000
00000000
00000000
,
00001100
00000110
00000011
00001001
,
00000001
00000000
00000000
00000100
00000000
00000000
00001000
00000000
00000000
00010000
00000000
00000000
00100000
00000000
10000000
00000000
,
00010000
00000000
00000000
10000000
00000000
00000000
01000000
00000000
00000000
00100000
00000000
00000000
00010000
00000000
10000000
00000000
,
01000000
00000000
00000000
00010000
00000000
00000000
00001000
00000000
00000000
00000100
00000000
00000000
00000001
00000000
00000100
00000000
,
00000010
00000000
00000000
00001000
00000000
00000000
00000001
00000000
00000000
00001000
00000000
00000000
00000100
00000000
00010000
00000000
,
00001000
00000000
00000000
01000000
00000000
00000000
00100000
00000000
00000000
01000000
00000000
00000000
10000000
00000000
01000000
00000000
,
00100000
00000000
00000000
01000000
00000000
00000000
00100000
00000000
00000000
01000000
00010000
00000000
00100000
00000000
01000000
00000000
,
10000000
00000000
00000000
01000000
00000000
00000000
00010000
00000000
00000000
00001000
00000000
00000000
00000010
00000000
00000001
00000000
,
00000100
00000001
00001000
00000100
00000010
00000000
00000110
00000000
,
00000001
00000100
00000001
00000000
00001000
00000000
00001000
00000000
00000010
00001000
00000010
00000000
00010000
00000000
00010000
00000000
,
00000100
00010000
00000100
00000000
00010000
00000000
00010000
00000000
00001000
00000000
01000000
00000000
00100000
00000000
10000000
00000000
,
01000000
10000000
01000000
00000000
00100000
00000000
00100000
00000000
00010000
01000000
00010000
00000000
00100000
00000000
00001000
00000000
,
00010000
00001000
00010000
00000000
00000100
00000000
00000010
00000000
00000001
00000000
00000100
00000000
00000010
00000000
00000100
00000000
,
00000001
00001000
00000001
00000000
00000100
00000000
00000100
00000000
00000010
00001000
00000010
00000000
00000100
00000000
00000010
00000000
,
00001000
00000100
00001000
00000000
00000100
00000000
00000100
00000000
00010000
00000000
00001000
00000000
00100000
00000000
01000000
00000000
,
10000000
01000000
10000000
00000000
11000000
00000000
00000000
00000000
00100000
00010000
00100000
00000000
00110000
00000000
00000000
00000000
,
10000000
01000000
10000000
00000000
01000000
00100000
01000000
00000000
00100000
00000000
00100000
00000000
00100000
00000000
00100000
00000000
,
00210000
00000000
00000000
00000000
00000000
00000000
00000000
00000000
00000000
00000000
00000000
00300000
00000000
00000000
00000000
00000000
,
00001000
00000000
00000000
00000000
00010000
00000000
00000000
00000000
00000100
00000000
00000000
00000010
00000001
00000000
00000100
00000000
,
00000010
00000000
00000000
00000000
00000100
00000000
00000000
00000000
00000001
00000000
00000000
00001000
00000100
00000000
00010000
00000000
,
00001000
00100000
01000000
01100000
,
00000000
00100000
00000000
11000000
00000000
10000000
01000000
00010000
,
00001000
00000010
00000000
00000011
00000000
00000001
00000100
00001000
,
00010000
01000000
00000000
01100000
00000000
00010000
10000000
01000000
,
00100000
01000000
00000000
11000000
00000000
00010000
01000000
00001000
,
00010000
00000100
00001100
00000000
00000010
00000001
00000100
00000010
,
00001000
00000010
00001010
00000000
00000001
00000100
00001000
00010000
,
00100000
10000000
10100000
00000000
10000000
00010000
00100000
00001000
,
00010000
00001000
00011000
00000000
00000100
00000010
00000001
00000100
,
00000101
00000000
00000000
00000000
;
