#TITLE:EVERYDAY AT THE BUS STOP;
#ARTIST:(J-POP);
#BANNER:EVERYDAY AT THE BUS STOP.png;
#BACKGROUND:EVERYDAY AT THE BUS STOP-bg.png;
#CDTITLE:./CDTITLES/DANCE DANCE REVOLUTION STRIKE.PNG;
#MUSIC:EVERYDAY AT THE BUS STOP.ogg;
#SAMPLESTART:58.791;
#SAMPLELENGTH:15;
#BPMS:0=122;
#BGCHANGES:19.75=EVERYDAY AT THE BUS STOP.avi=1=1=0=0,183.25=EVERYDAY AT THE BUS STOP-bg.png=1=0=0=1;

//---------------dance-single - ----------------
#NOTES:
     dance-single:
     :
     Beginner:
     1:
     :
0000
0000
0000
0000
,
0000
0000
0000
0000
,
0000
0000
0000
0000
,
0000
0000
0000
0000
,
0000
0000
0000
0000
,
0100
0100
0100
0000
,
0200
0000
0300
0000
,
0001
0001
0001
0000
,
0002
0000
0003
0000
,
1000
1000
1000
0000
,
2000
0000
3000
0000
,
0100
0100
0100
0000
,
0200
0000
0300
0000
,
0020
0000
0000
0030
,
0010
0000
0000
0000
,
0002
0000
0000
0003
,
0001
0000
0000
0000
,
1000
0000
0100
0000
,
1000
0000
0100
0000
,
0001
0000
0100
0000
,
1001
0000
0000
0000
,
0100
0100
0100
0000
,
0200
0000
0300
0000
,
0001
0001
0001
0000
,
0001
0000
0000
0010
,
0010
0000
0000
0100
,
0100
0000
0000
0010
,
0010
0000
0000
1000
,
1000
0000
0000
0000
,
1001
0000
0000
0000
,
0010
0010
0010
0000
,
0020
0000
0030
0000
,
0100
0100
0100
0000
,
0200
0000
0300
0000
,
0001
0001
0001
0000
,
0002
0000
0003
0000
,
1000
1000
1000
0000
,
2000
0000
3000
0000
,
1001
0000
0000
0100
,
0100
0000
0000
0010
,
0010
0000
0100
0000
,
0020
0000
0030
0000
,
1001
0000
0100
0100
,
0100
0000
0100
0100
,
0100
0000
0010
0000
,
1000
0000
1001
0000
;

//---------------dance-single - ----------------
#NOTES:
     dance-single:
     :
     Easy:
     3:
     :
0000
0000
0000
0000
,
0000
0000
0000
0000
,
0000
0000
0000
0000
,
0000
0000
0000
0000
,
0000
0000
0000
0000
,
1000
1000
0010
0100
,
0002
0000
0000
0003
,
0010
0010
0100
1000
,
0002
0000
0000
0003
,
0001
0001
0100
0010
,
2000
0000
0000
3000
,
0100
0100
0010
0001
,
2000
0000
0000
3000
,
0020
0030
2000
3000
,
0002
0003
2000
3000
,
0010
0100
0001
0100
,
0220
0000
0000
0330
,
0020
0030
2000
3000
,
0002
0003
2000
3000
,
0100
1000
0001
1000
,
2002
0000
0000
3003
,
1000
0010
0010
0010
,
0100
0000
0001
0000
,
1000
0100
0100
0100
,
0010
0000
0100
0000
,
1001
0000
1000
1000
,
0100
0000
0001
0001
,
0100
0000
1000
1000
,
0100
0000
0010
0000
,
1001
0000
0000
0000
,
0010
0100
0010
0010
,
1000
0000
0001
0100
,
0010
0010
0100
0100
,
1000
0000
0000
0000
,
0001
1000
0001
0001
,
0010
0000
0100
0010
,
0100
0100
1000
1000
,
0001
0000
0000
0000
,
1000
0001
1001
0000
,
1000
0001
1001
0000
,
0100
0010
1000
0001
,
1001
0000
0000
0000
,
1000
0001
0100
0100
,
0001
1000
0010
0010
,
1000
0001
1000
0001
,
0100
0010
0100
0010
;

//---------------dance-single - ----------------
#NOTES:
     dance-single:
     :
     Medium:
     5:
     :
0000
0000
0000
0000
,
0000
0000
0000
0000
,
0000
0000
0000
0000
,
0000
0000
0000
0000
,
0000
0000
0000
0000
,
0001
0000
1000
0000
0010
0100
0010
0000
,
1000
0002
0103
0000
,
1000
0000
0010
0000
0100
0001
0100
0000
,
0001
2000
3010
0000
,
1000
0000
0100
0000
0010
0001
0010
0000
,
0001
0200
0310
0000
,
1000
0000
0001
0000
1000
0100
1000
0000
,
0010
0010
0010
0000
,
0010
1000
0100
0000
1000
0000
1000
0000
,
0010
0100
0001
0100
0000
0100
0001
1000
,
0000
1000
0010
0100
0001
0000
1000
0010
,
0000
0010
0000
0000
0000
0010
0100
0000
,
0001
0100
1000
0000
0100
0000
0001
0000
,
1000
0100
0010
0001
0000
1000
0001
0100
,
0000
0100
0001
0010
0100
0000
1000
0100
,
0000
1000
0000
0000
0000
0001
1000
0000
,
1001
1100
0100
0010
,
1001
0101
0100
0010
,
0010
1000
0100
0000
0010
0001
0100
0000
,
0002
1000
1000
1003
,
0001
0000
0100
0010
1000
0000
1000
0000
,
0100
0000
1000
0010
0100
0000
0010
0000
,
0100
0000
0001
1000
0001
0000
0100
0000
,
0001
0010
0100
0000
1000
0000
0001
0000
,
2002
0000
3003
0000
,
1000
0000
0010
0000
0100
0001
0100
0000
,
0001
1000
0010
1000
,
0010
0000
1000
0000
0100
0010
0001
0000
,
0001
2000
0000
3001
,
1000
0000
0001
0000
1000
0100
0010
0000
,
0001
0100
0001
0100
,
0001
0000
1000
0000
0010
1000
0100
0000
,
1000
0002
0000
1003
,
0010
1000
0100
0000
1000
0100
0100
0000
,
0010
0001
0100
0000
0001
0100
0100
0000
,
0010
1000
0001
0100
,
0202
0000
0303
0000
,
0001
0100
1000
0000
1000
0100
0001
0000
,
1000
0100
0001
0000
0001
0100
1000
0000
,
0010
1000
0010
1000
0010
1000
0010
0000
,
2020
0000
0000
0000
0000
0000
0000
3030
;

//---------------dance-single - ----------------
#NOTES:
     dance-single:
     :
     Hard:
     8:
     :
0000
0000
0000
0000
,
0000
0000
0000
0000
,
0000
0000
0000
0000
,
0000
0000
0000
0000
,
0000
0000
0000
0000
,
0001
0000
1000
0000
0001
0010
0100
1000
,
0010
0100
0001
1000
0010
0001
0010
1000
,
0001
0000
1000
0000
0010
1000
0100
0010
,
0001
1000
0001
0010
0100
1000
0100
0001
,
0100
0000
1000
0000
0001
1000
0010
0100
,
0001
0010
0100
1000
0100
1000
0001
0100
,
0010
0000
1000
0001
0010
0100
1000
0010
,
1000
0001
0010
1000
0010
0001
0100
0000
,
0010
1000
1010
0000
1000
0001
1001
0000
,
1000
0010
0100
0001
1000
0001
0010
0100
,
1100
0100
0110
0010
0011
0001
1001
1000
,
0010
1000
0100
0010
0001
1000
0100
0000
,
0010
0001
0011
0000
0001
0100
0101
0000
,
0001
0100
1000
0100
0010
1000
0100
1000
,
1001
0001
0101
0100
0110
0010
1010
1000
,
0001
0010
0001
1000
0010
1000
0100
0000
,
1000
0101
1000
0101
,
0001
0100
0010
1000
0010
0100
0001
1000
,
0001
1100
0001
1100
,
0010
1000
0100
0010
0100
1000
0010
0000
,
1010
1000
0001
0100
0101
0001
1000
0010
,
0001
0010
1000
0100
0010
0001
0011
0000
,
0001
0100
0100
0001
0010
0010
0100
1000
,
0100
0001
0100
1000
0010
0010
0010
0000
,
1000
0000
0001
0000
0100
0000
0010
0000
1000
0000
0010
0100
0010
0000
0010
0000
,
0100
0001
1000
0100
1000
0010
0000
0110
,
0000
0001
1000
0010
0100
1000
0100
0020
,
0000
0100
0130
0001
1000
0100
0000
0220
,
0000
0000
0000
0330
,
1001
0100
0010
1000
0100
0010
0000
0011
,
0000
0001
1000
0010
1000
0100
0010
0200
,
0000
0010
0310
0001
1000
0100
0000
2200
,
0000
0000
0000
3300
,
1010
0010
1000
0100
1100
0100
0010
0001
,
0011
0001
1000
0010
0110
0100
0001
0010
,
0100
1000
0010
0100
0010
1000
0001
0200
,
0000
0000
0000
0300
,
0110
0010
1000
0100
1100
0100
0010
0100
,
0110
0010
0001
1000
1001
0001
0100
0010
,
1010
1000
1100
0100
0110
0010
0011
2002
,
0000
0000
0000
0000
0000
0000
0000
3003
;

//---------------dance-double - ----------------
#NOTES:
     dance-double:
     :
     Easy:
     3:
     :
00000000
00000000
00000000
00000000
,
00000000
00000000
00000000
00000000
,
00000000
00000000
00000000
00000000
,
00000000
00000000
00000000
00000000
,
00000000
00000000
00000000
00000000
,
00000001
00000100
00001000
00001000
,
00010000
00000000
00000000
00000000
,
10000000
01000000
00010000
00010000
,
00001000
00000000
00000000
00000000
,
00000001
00000100
00001000
00001000
,
00010000
00000000
00000000
00000000
,
10000000
01000000
00010000
00010000
,
00001000
00000000
00000000
00000000
,
00000001
00000001
00001000
00001000
,
00000001
00000100
00001000
00010000
,
02000000
03000000
20000000
30000000
,
10010000
00000000
00000000
00000000
,
10000000
10000000
00010000
00010000
,
10000000
01000000
00010000
00001000
,
00000200
00000300
00000002
00000003
,
00001001
00000000
00000000
00000000
,
00001000
00000100
00000010
00000001
,
00001000
00000000
00010000
00000000
,
00010000
00100000
01000000
10000000
,
00010000
00000000
00100000
00000000
,
01000000
00000000
10000000
10000000
,
01000000
00000000
00010000
00010000
,
00001000
00000000
00000100
00000100
,
00000001
00000000
00000010
00000000
,
00000110
00000000
00000000
00000000
,
00100000
00010000
00100000
00010000
,
10000000
01000000
10000000
01000000
,
00010000
00001000
00010000
00001000
,
00010000
00000000
00000000
00000000
,
00000010
00001000
00000010
00001000
,
00000001
00000100
00000001
00000100
,
00001000
00010000
00001000
00010000
,
00001000
00000000
00000000
00000000
,
01100000
00000000
10000000
00000000
,
01100000
00000000
00010000
00000000
,
00011000
00000000
00001000
00000000
,
00011000
00000000
00000000
00000000
,
00000001
00001000
00000001
00000100
,
00001000
00010000
01000000
10000000
,
00010000
10000000
01000000
00010000
,
00001000
00010000
00001000
00011000
;

//---------------dance-double - ----------------
#NOTES:
     dance-double:
     :
     Medium:
     5:
     :
00000000
00000000
00000000
00000000
,
00000000
00000000
00000000
00000000
,
00000000
00000000
00000000
00000000
,
00000000
00000000
00000000
00000000
,
00000000
00000000
00000000
00000000
,
00001000
00000000
00010000
00000000
00001000
00010000
00001000
00000000
,
00000100
00000002
00000103
00000000
,
00000010
00000000
00001000
00000000
00000100
00001000
00000100
00000000
,
00010000
00002000
00013000
00000000
,
01000000
00000000
10000000
00000000
00100000
10000000
00100000
00000000
,
01000000
00020000
01030000
00000000
,
00001000
00000000
00010000
00000000
00001000
00010000
00001000
00000000
,
00000100
00000001
00001000
00000000
,
00000001
00001000
00000100
00000000
00000010
00000000
00000100
00000000
,
00010000
00000100
00010000
00001000
00000000
00100000
00001000
00010000
,
00000000
00010000
00001000
00100000
00010000
00000000
10000000
01000000
,
00000000
01000000
00000000
00000000
00000000
00100000
00010000
00000000
,
10000000
01000000
00010000
00000000
00001000
00000000
00010000
00000000
,
00001000
00000100
00000001
00000000
00001000
00000000
00000001
00000000
,
00000010
00000100
00001000
00000000
00000010
00000100
00000001
00001000
,
00000000
00000100
00000000
00000000
00000000
00010000
00001000
00000000
,
00011000
00101000
00100000
00010000
,
10010000
11000000
00100000
00010000
,
01000000
00010000
00100000
00000000
01000000
10000000
00100000
00000000
,
00020000
00001000
00001000
00031000
,
00010000
00000000
00001000
00000100
00000001
00000000
00001000
00000000
,
00000001
00000000
00000010
00001000
00010000
00000000
00001000
00000000
,
00010000
00000000
00100000
01000000
00010000
00000000
10000000
00000000
,
00010000
00100000
01000000
00000000
10000000
00000000
00010000
00000000
,
20020000
00000000
30030000
00000000
,
01000000
00000000
00010000
00000000
00001000
00010000
00001000
00000000
,
00010000
00000100
00001000
00000010
,
00000001
00000000
00000010
00000000
00001000
00000001
00001000
00000000
,
00000100
00020000
00000000
00031000
,
00010000
00000000
01000000
00000000
10000000
01000000
00100000
00000000
,
00010000
01000000
10000000
01000000
,
00010000
00000000
10000000
00000000
00010000
10000000
00010000
00000000
,
00100000
00002000
00000000
00013000
,
00001000
00000100
00000010
00000000
00000100
00000010
00000001
00000000
,
00000001
00000010
00001000
00000000
00000010
00001000
00000100
00000000
,
00010000
00001000
00100000
00010000
,
20020000
00000000
30030000
00000000
,
00010000
00100000
01000000
00000000
00100000
01000000
10000000
00000000
,
01000000
10000000
00010000
00000000
10000000
00010000
00100000
00000000
,
00010000
00100000
00010000
00100000
00001000
00010000
00001000
00000000
,
00022000
00000000
00000000
00000000
00000000
00000000
00000000
00033000
;

//---------------dance-double - ----------------
#NOTES:
     dance-double:
     :
     Hard:
     7:
     :
00000000
00000000
00000000
00000000
,
00000000
00000000
00000000
00000000
,
00000000
00000000
00000000
00000000
,
00000000
00000000
00000000
00000000
,
00000000
00000000
00000000
00000000
,
10000000
00010000
10000000
00000000
00100000
01000000
00000000
00020000
,
00000000
00100000
00100000
00130000
00000000
00001000
00010000
00001000
,
00000000
00000010
00000100
00000000
00001000
00000001
00000000
00000020
,
00000000
00000100
00000100
00000130
00000000
00010000
00001000
00010000
,
00000000
01000000
00100000
00000000
00010000
10000000
00000000
00200000
,
00000000
01000000
01000000
01300000
00000000
00010000
10000000
00010000
,
00000000
01000000
10000000
00000000
00001000
00010000
00000000
00000200
,
00000000
00001000
00001000
00001000
00001300
00000000
00000110
00000000
,
00000001
00000010
00001000
00010000
00000010
00000000
00001010
00000000
,
00000100
00001000
00010000
00100000
01000000
00000000
10100000
00000000
,
00010000
01000000
00100000
00010000
00001000
00000000
00011000
00000000
,
00010000
00001000
00000100
00000010
00000001
00000000
00000110
00000000
,
00001000
00000100
00000010
00000001
00001000
00000100
00001000
00000010
,
00000100
00001000
00100000
01000000
10000000
00100000
01000000
00010000
,
00100000
01000000
00010000
00000100
00000010
00000001
00000100
00000010
,
00001000
00000010
00000100
00001000
00010000
00000000
01100000
00000000
,
10010000
01100000
01010000
00011000
,
00010000
01000000
10000000
00100000
00010000
00001000
00000010
00000001
,
00001001
00000110
00001100
00011000
,
00001000
00000100
00000001
00000010
00000000
00000000
00000101
00000000
,
00000001
00000000
00000000
00001000
00000000
00000000
00000001
00000000
00000000
00000000
00000100
00000000
00001000
00000000
00010000
00000000
,
01000000
00000000
00000000
10000000
00000000
00000000
01000000
00000000
00000000
00000000
00100000
00000000
00001000
00000000
00010000
00000000
,
00000010
00000000
00000000
00000100
00000000
00000000
00000010
00000000
00000000
00000000
00001000
00000000
00000100
00000000
00000001
00000000
,
00000000
00000100
00010000
00010000
01000000
00000000
00010000
00000000
,
01000000
00000000
00000000
10000000
00100000
00000000
01100000
00000000
,
00010000
00100000
00010000
00100000
00001000
00001000
00000000
00010010
,
00000000
00001000
00010000
00010000
00000000
00000100
00000010
00000001
,
00000000
00001000
00000100
00001000
00000100
00010000
00000000
00011000
,
00000000
00010000
01000000
00100000
00000000
01100000
00000000
00000000
,
00010000
01000000
00010000
01000000
00001000
00001000
00000000
00010100
,
00000000
00001000
00010000
00010000
00000000
00000010
00000100
00000001
,
00000000
00001000
00000010
00001000
00000010
00010000
00000000
00011000
,
00000000
00010000
00100000
01000000
00000000
00000000
11000000
00010000
,
00000000
10000000
02000000
00000000
03020000
00000000
00000000
00031000
,
00000000
00000010
00000002
00000000
00002003
00000000
00000000
00003002
,
00000000
00000103
00001000
00010000
01000000
00200000
00000000
20300000
,
00000000
30100000
01000000
00020000
00000000
00000000
00000000
00000000
,
00031000
00000100
00000010
00001000
00000100
00000010
00000100
00000100
,
00000010
00000001
00001000
00000010
00000001
00001000
00000100
00000100
,
00001000
00010000
00100000
00010000
00100000
10000000
01000000
00100000
,
00010000
00100000
00001000
00010000
00001000
00000100
00000010
00000001
;
