#TITLE:Choo Choo TRAIN;
#ARTIST:(J-POP);
#BANNER:Choo Choo TRAIN.png;
#BACKGROUND:Choo Choo TRAIN-bg.png;
#CDTITLE:./CDTITLES/DANCE DANCE REVOLUTION STRIKE.PNG;
#MUSIC:Choo Choo TRAIN.ogg;
#SAMPLESTART:83.728;
#SAMPLELENGTH:15;
#BPMS:0=122.985;
#BGCHANGES:3.75=Choo Choo Train.avi=1=1=0=0,209.75=Choo Choo TRAIN-bg.png=1=0=0=1;

//---------------dance-single - ----------------
#NOTES:
     dance-single:
     :
     Beginner:
     1:
     :
0000
0000
0000
0000
,
0000
0000
0000
0000
,
0000
0000
0000
0000
,
0000
0000
0000
0000
,
0000
0000
0000
0000
,
0001
0000
0001
0000
,
1000
0000
1000
0000
,
0010
0000
0000
0000
,
0100
0000
0000
0000
,
0001
0000
0000
0000
,
1000
0000
0000
0000
,
0100
0000
0100
0000
,
0100
0000
0100
0000
,
0010
0000
0010
0000
,
0010
0010
0010
0000
,
0001
0000
0001
0000
,
0001
0000
0001
0000
,
0001
0001
0001
0000
,
1000
1000
1000
0000
,
0100
0000
0010
0000
,
0001
0000
0001
0000
,
0001
0000
0001
0000
,
1000
0000
1000
0000
,
0010
0010
0010
0000
,
0100
0100
0100
0000
,
0001
0000
0001
0000
,
1000
0000
0000
0000
,
1000
0000
1000
0000
,
0100
0000
0000
0000
,
0010
0000
0010
0000
,
0001
0000
0000
0000
,
0100
0100
0100
0000
,
0100
0100
0100
0000
,
0010
0010
0010
0000
,
0010
0010
0010
0000
,
0001
0000
0001
0000
,
1000
0000
1000
0000
,
0100
0000
0100
0000
,
0010
0000
0010
0000
,
0001
0000
0000
0000
,
1000
0000
0000
0000
,
0001
0001
0001
0000
,
1001
0000
0000
0000
,
0001
0001
0001
0000
,
1000
1000
1000
0000
,
0010
0000
0010
0000
,
0100
0000
0100
0000
,
0100
0100
0100
0000
,
0010
0010
0010
0000
,
0001
0000
0000
0000
,
1000
0000
0000
0000
,
1001
0000
0000
0000
,
1001
0000
0000
0000
;

//---------------dance-single - ----------------
#NOTES:
     dance-single:
     :
     Easy:
     3:
     :
0000
0000
0000
0000
,
0000
0000
0000
0000
,
0000
0000
0000
0000
,
0000
0000
0000
0000
,
0000
0000
0000
0000
,
0001
0001
0100
0010
,
1000
1000
1000
0000
,
1000
0010
0100
0001
,
0001
1000
0001
1000
,
2002
0000
3003
0000
,
0220
0000
0330
0000
,
0001
1000
0010
0100
,
0002
0003
2000
3000
,
1000
1000
0001
1000
,
0020
0000
0000
0030
,
0000
0100
0001
1000
,
0100
0000
1000
0001
,
0002
0003
2000
3000
,
0200
0300
0100
0100
,
0020
0000
0130
0000
,
2000
0000
3001
0010
,
0001
1000
0002
0000
,
0003
0000
0001
1000
,
0010
0200
0000
0000
,
0300
0000
0010
0100
,
1000
1000
1000
0001
,
1001
0000
0000
0000
,
0001
1000
0001
0100
,
0020
0000
0030
1000
,
0001
1000
0100
0010
,
0002
0000
0000
0003
,
0000
0001
1000
0010
,
1000
0000
0001
1000
,
1000
1000
0002
0000
,
0003
0000
0100
0100
,
0010
1000
0001
0000
,
0000
0000
0001
0100
,
0010
0100
0200
0000
,
0300
0000
0002
0003
,
2000
3000
0020
0030
,
0100
0100
0100
0010
,
1000
0001
0100
0001
,
1001
0000
0000
0000
,
0010
0010
1000
0001
,
1000
1000
1000
0000
,
1000
0010
0100
0002
,
0003
2000
0000
3000
,
0100
0100
0010
0100
,
0010
0010
0010
0000
,
1000
0001
0100
0001
,
1000
1000
0100
0010
,
0220
0000
0330
0000
,
2002
0000
0000
3003
;

//---------------dance-single - ----------------
#NOTES:
     dance-single:
     :
     Medium:
     5:
     :
0000
0000
0000
0000
,
0000
0000
0000
0000
,
0000
0000
0000
0000
,
0000
0000
0000
0000
,
0000
0000
0000
0000
,
0001
1000
0010
1000
,
0200
0000
0000
0020
0000
0000
0330
0000
,
0001
0100
0010
1000
,
0001
0000
1000
0000
0001
1000
0010
0000
,
1000
0000
1000
0000
0010
1000
0010
0000
,
1000
0000
0100
0000
0010
0001
0101
0000
,
0001
0001
0010
0100
,
2000
0000
3001
0000
,
1000
0000
0010
0000
1000
0010
1000
0000
,
0100
0000
0010
0000
0100
0010
0001
0000
,
0001
0000
1000
0000
0001
0001
1000
0000
,
0001
0001
0100
0000
0010
0100
1000
0000
,
1100
0001
0101
0010
,
0011
0000
0101
0000
0010
1000
0010
0000
,
0200
0000
0302
0003
,
1000
0000
0001
0000
0100
0010
0100
0000
,
0010
1000
0001
0000
1000
0001
0100
0000
,
0001
0000
1000
0000
0001
1000
0010
0000
,
0100
0100
0001
0001
,
0010
0010
0100
0100
,
0110
0110
1001
1001
,
0000
0001
1000
0000
0010
1000
0000
0000
,
0001
1000
0001
0010
,
0001
0010
0100
0000
0010
0100
1000
0000
,
0010
0100
0001
1000
,
0001
0100
0010
0010
,
1000
0000
0001
0000
0001
0010
0001
0000
,
0001
0100
0001
0000
0001
1000
0001
0000
,
0101
1100
0101
1001
,
0001
0010
0100
1100
,
0002
0000
2003
3000
,
0001
0000
0010
0000
0100
1000
0001
0000
,
0010
1000
0100
0001
,
0010
0010
1000
1000
,
1010
0100
0110
0100
,
0101
0001
1000
0100
,
0010
0100
1000
0000
0001
0100
1000
0000
,
0220
0000
0330
0000
,
1000
0100
0010
0100
,
2000
0000
0000
0002
0000
0000
3003
0000
,
1000
0001
0010
0100
,
0010
0001
0100
0000
0010
0000
1001
0000
,
1000
0100
0010
0100
,
0020
0000
0000
0200
0000
0000
0330
0000
,
1000
0010
0100
0001
,
1000
0000
0001
0000
0010
0001
0100
0000
,
0001
0000
0001
0000
1000
0010
0100
0000
,
0002
0000
0000
1003
0000
0000
0000
0000
;

//---------------dance-single - ----------------
#NOTES:
     dance-single:
     :
     Hard:
     7:
     :
0000
0000
0000
0000
,
0000
0000
0000
0000
,
0000
0000
0000
0000
,
0000
0000
0000
0000
,
0000
0000
0000
0000
,
2000
0000
3002
0000
2003
0000
3100
0010
,
0001
0100
0001
0000
1000
0100
1000
0001
,
0101
0000
0001
0020
0000
0000
0130
0000
,
1000
0001
1000
0010
0000
0100
0000
0000
,
0001
0100
0000
0000
0000
0000
1000
0200
0000
0000
0000
0000
0300
0000
0000
0000
,
1000
0010
0000
0000
0000
0000
0001
0010
0000
0000
0000
0000
0011
0000
0000
0000
,
0001
1000
0010
1000
0100
0010
0001
0000
,
0011
1100
0101
1100
,
1000
0010
0100
0000
0010
1000
0100
0010
,
0002
0203
0000
0301
,
0001
0010
0100
1000
0010
1000
0010
0100
,
0000
0100
0000
1001
0000
0100
0000
0001
,
0000
0010
0000
0200
0000
0010
0000
0010
,
0000
0010
0300
0010
0001
1000
0100
0010
,
0000
0010
0100
1000
0001
0100
0001
0000
,
1000
0000
0100
0000
0010
0100
0010
0001
,
0100
0001
0010
0000
0100
0000
2000
0000
,
0001
0000
0001
0000
3001
0010
0100
1000
,
1000
0001
0100
0020
0000
0000
0100
0000
,
1000
0130
0101
1100
,
0010
1000
0100
1000
0100
0001
0100
0010
,
0000
0001
0001
0000
1000
1000
0000
0000
,
1000
0010
0100
0001
0010
0010
0001
0100
,
0001
0010
0100
0000
1000
0000
0001
0000
,
1000
0000
0001
0101
0000
0010
0100
2000
,
0000
0000
3000
1010
,
1000
0000
0001
1000
0010
1000
0100
0000
,
1100
0000
0110
0000
0001
0100
1000
0100
,
0000
0001
0000
0010
0000
0100
0020
0000
,
0000
0000
0000
0000
0031
0100
0010
0000
,
1010
0100
0011
0100
,
0010
0001
0100
0000
0010
1000
0100
0000
,
1100
1001
0101
0110
,
0001
0100
0010
0000
1000
0100
0010
0000
,
0001
0100
0001
1000
0010
0000
1000
0000
,
0100
0000
1100
0000
0010
0100
0001
0000
,
1000
0010
0100
0001
0000
0001
1000
0001
,
0000
1000
1100
0000
0001
0011
0000
0000
,
0002
0000
2003
0000
3002
0000
0103
0010
,
1000
0100
1000
0000
0001
0100
0010
0000
,
0101
0000
1000
0000
1100
0000
0010
0100
,
0001
0100
0001
0010
0000
0011
0000
0000
,
1100
0000
0110
0000
0101
0000
0001
1000
,
0100
0010
0100
1000
0010
0100
0001
0100
,
1000
0000
0001
0200
0000
0000
0310
0001
,
0100
0010
1000
0100
0000
0010
0000
0000
,
0001
0010
0000
0000
0000
0000
1000
0010
0000
0000
0000
0000
1100
0000
0000
0000
,
1000
0001
0000
0000
0000
0000
0001
1000
0000
0000
0000
0000
0000
0000
0000
0000
;

//---------------dance-double - ----------------
#NOTES:
     dance-double:
     :
     Easy:
     3:
     :
00000000
00000000
00000000
00000000
,
00000000
00000000
00000000
00000000
,
00000000
00000000
00000000
00000000
,
00000000
00000000
00000000
00000000
,
00000000
00000000
00000000
00000000
,
10000000
10000000
01000000
00100000
,
00001000
00010000
00010000
00000000
,
00000100
00000010
00000001
00000100
,
00001000
00010000
00001000
00010000
,
00022000
00000000
00033000
00000000
,
02020000
00000000
03030000
00000000
,
00100000
01000000
00100000
10000000
,
02000000
03000000
00200000
00300000
,
00010000
10000000
01000000
00010000
,
00002000
00000000
00000000
00003000
,
00000000
00000010
00000001
00001000
,
00000010
00000000
00000100
00000001
,
00002000
00003000
02000000
03000000
,
00020000
00030000
10000000
10000000
,
00200000
00000000
01300000
00000000
,
00200000
00000000
10300000
01000000
,
00010000
00001000
00000200
00000000
,
00000300
00000000
00000010
00001000
,
00000001
00000200
00000000
00000000
,
00000300
00000000
00001000
00100000
,
01000000
01000000
01000000
00100000
,
01100000
00000000
00000000
00000000
,
00010000
10000000
01000000
00100000
,
02000000
00000000
03000000
10000000
,
00010000
01000000
00001000
00100000
,
00022000
00000000
00000000
00033000
,
00000000
00000100
00001000
00000010
,
00000100
00000000
00000001
00000010
,
00000010
00000010
00000200
00000000
,
00000300
00000000
00010000
00010000
,
01000000
00100000
10000000
00000000
,
00000000
00000000
00010000
10000000
,
00100000
01000000
00020000
00000000
,
00030000
00000000
02000000
03000000
,
00002000
00003000
00020000
00030000
,
00000010
00000010
00000010
00000100
,
00000001
00000010
00000100
00001000
,
00001001
00000000
00000000
00000000
,
00000001
00000100
00001000
00010000
,
00100000
10000000
10000000
00000000
,
00010000
00100000
00010000
20000000
,
30000000
02000000
00000000
03000000
,
10000000
10000000
00010000
01000000
,
00001000
00001000
00001000
00000000
,
00010000
00000100
00000010
00000001
,
00000010
00000010
00000100
00001000
,
00002200
00000000
00003300
00000000
,
00022000
00000000
00000000
00033000
;

//---------------dance-double - ----------------
#NOTES:
     dance-double:
     :
     Medium:
     5:
     :
00000000
00000000
00000000
00000000
,
00000000
00000000
00000000
00000000
,
00000000
00000000
00000000
00000000
,
00000000
00000000
00000000
00000000
,
00000000
00000000
00000000
00000000
,
00000001
00001000
00000010
00001000
,
00000002
00000000
00000000
00000200
00000000
00000000
00000303
00000000
,
00001000
00010000
00100000
10000000
,
00010000
00000000
10000000
00000000
00010000
10000000
00100000
00000000
,
10000000
00000000
10000000
00000000
10000000
01000000
00010000
00000000
,
00001000
00000000
00000010
00000000
00000001
00000010
00000011
00000000
,
00000001
00000001
00000100
00001000
,
00020000
00000000
01030000
00000000
,
10000000
00000000
00100000
00000000
10000000
00100000
10000000
00000000
,
01000000
00000000
00100000
00000000
00001000
00010000
00000100
00000000
,
00001000
00000000
00000001
00000000
00001000
00001000
00000001
00000000
,
00001000
00001000
00000100
00000000
00000010
00000001
00000100
00000000
,
00000110
00010000
00011000
00100000
,
00110000
00000000
01010000
00000000
00100000
10000000
00100000
00000000
,
20000000
00000000
32000000
03000000
,
00010000
00000000
00001000
00000000
00000100
00000010
00000100
00000000
,
00000010
00000100
00000001
00000000
00000001
00000100
00000010
00000000
,
00010000
00000000
00001000
00000000
01000000
00100000
10000000
00000000
,
01000000
01000000
00010000
00010000
,
00001000
00001000
00000010
00000010
,
00000110
00000110
00001001
00001001
,
00000000
00000001
00000100
00000000
00000010
00010000
00000000
00000000
,
00001000
00000000
01000000
00000000
00010000
00010000
00100000
00000000
,
01000000
10000000
00010000
00000000
10000000
00010000
00100000
00000000
,
01000000
10000000
01000000
00010000
,
00001000
00000010
00000001
00000001
,
00000100
00000000
00000001
00000000
00001000
00000010
00001000
00000000
,
00000100
00010000
00000100
00000000
00010000
00001000
00010000
00000000
,
00011000
01010000
11000000
10010000
,
10000000
01000000
00100000
01100000
,
20000000
00000000
30020000
00030000
,
01000000
00000000
00001000
00000000
00010000
00001000
00000100
00000000
,
00000010
00001000
00000001
00000100
,
00000020
00001030
00000200
00010300
,
00011000
01000000
01100000
01000000
,
01010000
00010000
10000000
01000000
,
00010000
00001000
00000010
00000000
00000001
00000100
00000010
00000000
,
00000220
00000000
00000330
00000000
,
00000001
00000100
00000010
00001000
,
02000000
00000000
00000000
00020000
00000000
00000000
03030000
00000000
,
10000000
00010000
00100000
01000000
,
10000000
00100000
00010000
00000000
00100000
00000000
01100000
00000000
,
00001000
00010000
00000100
00000010
,
00000002
00000000
00000000
00002000
00000000
00000000
00003003
00000000
,
00000010
00001000
00000001
00000100
,
00001000
00000000
00010000
00000000
00100000
10000000
01000000
00000000
,
10000000
00000000
10000000
00000000
00010000
00100000
01000000
00000000
,
20000000
00000000
00000000
30010000
00000000
00000000
00000000
00000000
;

//---------------dance-double - ----------------
#NOTES:
     dance-double:
     :
     Hard:
     8:
     :
00000000
00000000
00000000
00000000
,
00000000
00000000
00000000
00000000
,
00000000
00000000
00000000
00000000
,
00000000
00000000
00000000
00000000
,
00000000
00000000
00000000
00000000
,
00000020
00000000
00002030
00000000
00003002
00000000
00000103
00000010
,
00001000
00000001
00001000
00000000
00000001
00001000
00000100
00010000
,
00011000
00000000
01000000
00020000
00000000
00000000
10030000
00000000
,
00100000
10000000
01000000
10000000
00000000
00100000
00000000
00000000
,
10000000
01000000
00000000
00000000
00000000
00000000
00100000
00020000
00000000
00000000
00000000
00000000
00030000
00000000
00000000
00000000
,
00100000
00001000
00000000
00000000
00000000
00000000
00010000
00001000
00000000
00000000
00000000
00000000
00010100
00000000
00000000
00000000
,
00000010
00000001
00000010
00000100
00001000
00000001
00000100
00000000
,
00000101
00000110
00010100
01001000
,
00010000
10000000
00100000
00000000
00100000
10000000
01000000
00100000
,
00020000
00000000
10000000
00000000
10000000
01000000
10030000
00000000
,
10000000
01000000
00010000
00001000
00000010
00000001
00000010
00000100
,
00000000
00001000
00000000
00000001
00000100
00000010
00000000
00001000
,
00000000
00000100
00001000
00000001
00000001
00000100
00001000
00010000
,
01000000
10000000
11000000
00000000
00100000
00010000
10000000
01000000
,
00100000
00010000
01000000
00100000
10000000
00000000
00000000
00000000
,
01010000
00000000
00011000
00000000
00000100
00000010
00000001
00000010
,
00000100
00001000
00000001
00000100
00000000
00000100
00000010
00000000
,
00000110
00000000
00011000
00000000
01000000
00100000
10000000
10000000
,
00100000
10000000
00010000
20000000
00000000
00000000
00100000
00000000
,
00010000
31000000
01100000
00011000
,
00000100
00001000
00000001
00000100
00000001
00000010
00000100
00001000
,
00000000
00000010
00000010
00000000
00010000
00010000
00000000
00000000
,
00000100
00000010
00000001
00000100
00000010
00000010
00001000
00000010
,
00000100
00000001
00000010
00000000
00001100
00000000
00011000
00000000
,
01010000
00000000
01000000
01100000
00000000
10000000
01000000
00200000
,
00000000
00000000
00300000
00110000
,
00010000
00000000
00000000
00000000
00000000
00000000
10000000
00000000
00000000
01000000
00000000
00000000
00010000
00000000
00000000
00001000
00000000
00000000
00000010
00000000
00000000
00000000
00000001
00000000
,
00000000
00000000
00001001
00000000
00000001
00000010
00001000
00000010
,
00000000
00000001
00000000
00000100
00000000
00001000
02000000
00000000
,
00000000
00000000
00000000
00000000
03010000
10000000
00100000
00000000
,
10100000
01000000
00110000
01000000
,
10000000
01000000
00010000
00000000
00001000
00000100
00000001
00000000
,
00000011
00000110
00001100
00000110
,
00000010
00000100
00010000
00000000
00001000
00010000
01000000
00000000
,
10000000
00100000
01000000
00010000
00100000
00000000
00110000
00000000
,
01001000
00000000
00011000
00000000
00010000
00001000
00000100
00000000
,
00000001
00000010
00000100
00001000
00000000
00000001
00000100
00000001
,
00000000
00001000
00001010
00000000
00010000
00011000
00000000
00000000
,
00002000
00000000
02003000
00000000
03020000
00000000
10030000
00100000
,
01000000
00001000
00010000
00000000
00010000
00000100
00000010
00000000
,
00000110
00000000
00000001
00000000
00000101
00000000
00000001
00000100
,
00001000
00010000
00100000
10000000
00000000
00110000
00000000
00000000
,
11000000
00000000
01010000
00000000
00011000
00000000
00010000
00000100
,
00000010
00000001
00000010
00000100
00001000
00000001
00000100
00000010
,
00001000
00000000
00000100
00020000
00000000
00000000
00031000
01000000
,
00100000
10000000
00010000
10000000
00000000
10010000
00000000
00000000
,
00010000
00000100
00000000
00000000
00000000
00000000
00001000
01000000
00000000
00000000
00000000
00000000
00011000
00000000
00000000
00000000
,
00010000
00000100
00000000
00000000
00000000
00000000
00001000
00000001
00000000
00000000
00000000
00000000
00000000
00000000
00000000
00000000
;
