#TITLE:Stomp to my beat (NEMESetup Special);
#SUBTITLE:;
#ARTIST:JS16;
#TITLETRANSLIT:;
#SUBTITLETRANSLIT:;
#ARTISTTRANSLIT:;
#CREDIT:;
#BANNER:Stomp to my beat (NEMESetup Special)-.png;
#BACKGROUND:Stomp to my beat-bg.png;
#LYRICSPATH:Stomp to my beat.lrc;
#CDTITLE:./CDTITLES/DANCE MANIA WINTERS.PNG;
#MUSIC:Stomp to my beat.mp3;
#OFFSET:-7.339;
#SAMPLESTART:7.310;
#SAMPLELENGTH:12.000;
#SELECTABLE:YES;
#DISPLAYBPM:134.000;
#BPMS:0.000=133.870;
#STOPS:;
#BGCHANGES:;

//---------------dance-single - NEMESetup----------------
#NOTES:
     dance-single:
     NEMESetup:
     Challenge:
     9:
     0.740,0.860,1.000,0.281,0.348: // measure 1
1001
1000
0001
0010
0100
0100
1000
0000
,  // measure 2
0011
0010
0001
0100
1000
0100
0010
0010
,  // measure 3
0010
0000
1000
0000
0100
0000
0001
0000
0100
0010
0000
0010
0000
0000
0001
0000
,  // measure 4
0100
0101
0100
1100
0100
0000
0010
0000
,  // measure 5
0110
0100
0001
0010
1000
0001
0001
0000
,  // measure 6
1100
1000
0010
0001
1000
0100
0010
0010
,  // measure 7
0010
0000
0100
0000
0001
0000
1000
0000
0001
0010
0000
0010
0000
0000
0001
0000
,  // measure 8
0100
1100
0100
0101
0200
0000
0300
0000
,  // measure 9
2002
0000
0000
0000
3003
0000
0100
0000
0010
1000
0000
0010
1000
0000
0100
0000
,  // measure 10
2002
0000
0000
0000
3003
0000
0100
0000
0010
0001
0000
0010
0001
0000
0100
0000
,  // measure 11
2002
0000
0000
0000
3003
0000
0100
0000
0010
1000
0000
0010
1000
0000
0100
0000
,  // measure 12
0010
0001
0000
0010
0001
0000
0100
0000
0010
1000
0000
0010
1000
0000
0100
0000
,  // measure 13
1001
0011
1010
1100
,  // measure 14
1001
1010
0011
0101
,  // measure 15
0110
1001
0110
1001
0110
1001
0110
1001
,  // measure 16
0110
1001
0110
1001
0110
1001
0110
1001
,  // measure 17
0220
0000
0000
0300
,  // measure 18
1030
0000
0001
1000
0001
0000
1000
0001
,  // measure 19
1000
0000
0001
1000
0001
0000
1000
0001
,  // measure 20
0100
0100
0100
0100
0010
0100
0110
0000
,  // measure 21
1001
0000
0100
0000
0010
0000
1000
0001
1000
0100
0010
0000
0011
0000
0000
0000
,  // measure 22
1100
0000
0100
0010
0100
0000
0110
0000
0010
0001
0010
0000
0001
0000
0001
0000
,  // measure 23
0101
0000
1000
0000
1000
0100
0010
0000
0001
1000
0000
0010
0000
0000
1000
0000
,  // measure 24
0001
0000
0101
0000
0100
0000
1100
0000
0100
0000
0000
0000
0110
0000
0000
1001
,  // measure 25
0000
0000
0100
0000
0010
1000
0010
0000
0100
0001
0010
0000
0110
0000
0000
0000
,  // measure 26
0101
0000
0100
0010
0100
0000
0110
0000
0100
1000
0100
0000
1000
0000
1000
0000
,  // measure 27
1100
0000
0001
0000
0001
1000
0010
0000
1000
0001
0000
0010
0000
0000
0001
0000
,  // measure 28
1000
1100
0100
0101
0100
0010
0001
0010
,  // measure 29
0011
1100
0011
1100
,  // measure 30
0001
1000
1000
0001
1000
1000
0001
1000
0010
0100
0010
0100
0001
1000
0001
1000
,  // measure 31
1001
0110
1001
0110
,  // measure 32
1000
0001
0001
1000
0001
0001
1000
0001
0100
0010
0100
0010
1000
0000
0100
0000
,  // measure 33
1001
0000
0000
0000
0001
0100
0001
0100
0101
0000
0000
0000
1000
0100
1000
0100
,  // measure 34
1100
0000
0100
0010
0100
0100
0010
0100
0110
0000
0011
0000
0010
0010
0001
0010
,  // measure 35
0110
1001
0110
1001
0110
1001
0110
1001
,  // measure 36
0110
1001
0110
1001
0110
1001
0110
1001
,  // measure 37
0220
0000
0000
0000
0330
0000
1000
0000
0001
0010
0000
0001
0100
0000
0010
0000
,  // measure 38
2020
0000
0000
0000
3030
0000
0001
0000
1000
0100
0000
0010
0001
0000
0100
0000
,  // measure 39
0220
0000
0000
0000
0330
0000
1000
0000
0010
0001
0000
0010
0100
0000
1000
0000
,  // measure 40
0100
0001
0000
0100
0010
0000
0001
0000
0010
1000
0000
0010
0100
0000
0001
0000
,  // measure 41
0202
0000
0303
1000
2200
0000
3300
0010
,  // measure 42
0022
0000
0033
0100
0220
0000
0330
0010
,  // measure 43
1010
1000
1001
0001
0011
0001
1001
0100
,  // measure 44
0110
1001
0110
1001
0110
1001
0110
1001
,  // measure 45
0220
0000
0000
0000
,  // measure 46
0330
0000
0000
0000
;
