#TITLE:Where's the Exit?;
#SUBTITLE:;
#ARTIST:From Super Mario Bros.;
#TITLETRANSLIT:;
#SUBTITLETRANSLIT:;
#ARTISTTRANSLIT:;
#GENRE:;
#CREDIT:;
#BANNER:Where's the Exit.png;
#BACKGROUND:Where's the Exit-bg.png;
#LYRICSPATH:;
#CDTITLE:;
#MUSIC:Where's The Exit.ogg;
#OFFSET:1.807538;
#SAMPLESTART:28.869997;
#SAMPLELENGTH:15.000000;
#LASTBEATHINT:1.775845;
#SELECTABLE:YES;
#DISPLAYBPM:133.000000;
#BPMS:0.000000=133.000000
;
#STOPS:
;
#BGCHANGES:3.500=Where's The Exit.avi=1.000=1=0=1===CrossFade==,
236.000=Where's the Exit-bg.png=1.000=1=0=1===CrossFade==,
99999=-nosongbg-=1.000=0=0=0 // don't automatically add -songbackground-
;
#KEYSOUNDS:;
#ATTACKS:;

//---------------dance-single - ----------------
#NOTES:
     dance-single:
     :
     Beginner:
     1:
     0.085306,0.137246,0.009631,0.000000,0.000000,62.000000,61.000000,1.000000,0.000000,0.000000,0.000000,0.085306,0.137246,0.009631,0.000000,0.000000,62.000000,61.000000,1.000000,0.000000,0.000000,0.000000:
0000
0000
0000
0000
,
0000
0000
0000
0000
,
0000
0000
0000
0000
,
0000
0000
0000
0000
,
0000
0000
0000
0000
,
0000
0000
0000
0000
,
0000
0000
0000
0000
,
0000
0000
0000
0000
,
0000
0000
0000
0000
,
0001
0000
0000
0000
,
1000
0000
1000
0000
,
1000
0000
0000
0000
,
0001
0000
0000
0000
,
0001
0000
0000
0000
,
0001
0000
0001
0000
,
1000
0000
0000
0000
,
1000
0000
0000
0000
,
1000
0000
0000
0000
,
0000
0000
0000
0000
,
0001
0000
0000
0000
,
0000
0000
0000
0000
,
1000
0000
0000
0000
,
0000
0000
0000
0000
,
0001
0000
0000
0000
,
0000
0000
0000
0000
,
1000
0000
0000
0000
,
1000
0000
1000
0000
,
0001
0000
0000
0000
,
0001
0000
0000
0000
,
1000
0000
0000
0000
,
0001
0000
0001
0000
,
1000
0000
0000
0000
,
0001
0000
1000
0000
,
0001
0000
0000
0000
,
1000
0000
1000
0000
,
1000
0000
0000
0000
,
1000
0000
0001
0000
,
0001
0000
0000
0000
,
1000
1000
1000
0000
,
0001
0000
0000
0000
,
0001
0000
0001
0001
,
0001
0000
0000
0000
,
1000
0000
1000
0000
,
1000
0000
0000
0000
,
0001
0000
0000
0000
,
0001
0000
0000
0000
,
0001
0000
0001
0000
,
1000
0000
0000
0000
,
1000
0000
0000
0000
,
0001
0000
0000
0000
,
1000
0000
0001
0000
,
1000
0000
0000
0000
,
1000
0000
1000
0000
,
0001
0000
0000
0000
,
1000
0000
0001
0000
,
1000
0000
0000
0000
,
0001
0000
0000
0000
,
1001
0000
0000
0000
;

//---------------dance-single - ----------------
#NOTES:
     dance-single:
     :
     Easy:
     2:
     0.112824,0.164695,0.019263,0.000000,0.000000,82.000000,80.000000,2.000000,0.000000,0.000000,0.000000,0.112824,0.164695,0.019263,0.000000,0.000000,82.000000,80.000000,2.000000,0.000000,0.000000,0.000000:
0000
0000
0000
0000
,
0000
0000
0000
0000
,
0000
0000
0000
0000
,
0000
0000
0000
0000
,
0000
0000
0000
0000
,
0000
0000
0000
0000
,
0000
0000
0000
0000
,
0000
0000
0000
0000
,
0000
0000
0000
0000
,
1000
0000
0010
0000
,
1000
0000
0000
0000
,
0001
0000
0010
0000
,
0010
0000
0000
0000
,
1000
0000
0010
0000
,
0001
0000
0000
0000
,
0001
0000
0010
0000
,
0100
0000
0000
0000
,
1000
0000
0000
0000
,
0010
0000
0001
0001
,
0001
0000
0000
0000
,
0010
0000
1000
1000
,
1000
0000
0000
0000
,
0010
0000
0001
0001
,
0001
0000
0000
0000
,
0010
0000
1000
0010
,
1000
0000
0000
0000
,
1000
0000
0001
0000
,
0010
0000
0001
0000
,
0001
0000
0000
0000
,
1000
0000
0000
0000
,
0001
0000
1000
0000
,
0010
0000
1000
0000
,
0100
0000
0000
0000
,
0010
0000
0000
0000
,
0001
0000
0010
0000
,
0010
0000
0000
0000
,
1000
1000
0100
0000
,
0001
0000
0000
0000
,
0001
0001
0010
0000
,
0010
0000
0000
0000
,
1001
0000
0000
0000
,
1000
0000
0010
0000
,
1000
0000
0000
0000
,
0001
0000
0010
0000
,
0010
0000
0000
0000
,
1000
0000
0010
0000
,
0001
0000
0000
0000
,
0001
0000
0010
0000
,
0100
0000
1000
0000
,
1000
0000
0001
0000
,
0010
0000
0000
0000
,
0001
0000
1000
0000
,
0100
0000
0000
0000
,
0001
0000
1000
0000
,
0010
0000
0000
0000
,
1000
0000
0001
0000
,
0100
0000
0010
0000
,
0110
0000
0000
0000
;

//---------------dance-single - ----------------
#NOTES:
     dance-single:
     :
     Medium:
     3:
     0.202258,0.247043,0.057788,0.000000,0.000000,147.000000,141.000000,6.000000,0.000000,0.000000,0.000000,0.202258,0.247043,0.057788,0.000000,0.000000,147.000000,141.000000,6.000000,0.000000,0.000000,0.000000:
0000
0000
0000
0000
,
0000
0000
0000
0000
,
0000
0000
0000
0000
,
0000
0000
0000
0000
,
0000
0000
0000
0000
,
0000
0000
0000
0000
,
0000
0000
0000
0000
,
0000
0000
0000
0000
,
0000
0000
0000
0000
,
0010
0000
1000
1000
,
1000
0100
0100
0000
,
0010
0000
0001
0001
,
0010
0010
0100
0000
,
0010
0000
1000
1000
,
0001
0100
0100
0000
,
0010
0000
0001
0001
,
0001
0010
0100
0000
,
1000
0000
0100
0000
,
0001
0010
0010
0001
,
0001
0000
0100
0000
,
0100
0010
0010
1000
,
1000
0000
0100
0000
,
1000
0010
0010
1000
,
0001
0000
0100
0000
,
0001
0010
0010
0100
,
0100
0000
1000
0000
,
0100
0001
1000
0000
,
0100
0000
1000
1000
,
0100
0000
0001
0000
,
0100
0000
1000
0000
,
0100
1000
0001
0000
,
0100
0000
0001
0001
,
0100
0100
1001
0000
,
1000
0001
0100
0000
,
0001
0001
0000
0000
1001
0000
0000
0000
,
0001
1000
0100
0000
,
0001
0001
0000
0000
1000
1000
0000
0000
,
1000
0000
0100
0000
,
0001
0000
1000
1000
,
1000
0001
0100
0000
,
0110
0000
0100
0000
,
0010
0000
1000
1000
,
1000
0100
0100
0000
,
0010
0000
0001
0001
,
0010
0010
0100
0000
,
0010
0000
1000
1000
,
0001
0100
0100
0000
,
0010
0000
0001
0001
,
0010
0010
0110
0000
,
0010
0000
0001
1000
,
1000
0010
0100
0000
,
0010
0000
1000
0001
,
0010
0001
0100
0000
,
0010
0000
0001
1000
,
0001
0010
0100
0000
,
0010
0000
1000
0001
,
0010
0100
0110
0000
,
1001
0000
0000
0000
;

//---------------dance-single - ----------------
#NOTES:
     dance-single:
     :
     Hard:
     5:
     0.258670,0.301942,0.067419,0.000000,0.004816,188.000000,181.000000,7.000000,0.000000,0.000000,0.000000,0.258670,0.301942,0.067419,0.000000,0.004816,188.000000,181.000000,7.000000,0.000000,0.000000,0.000000:
0000
0000
0000
0000
,
0000
0000
0000
0000
,
0000
0000
0000
0000
,
0000
0000
0000
0000
,
0000
0000
0000
0000
,
0000
0000
0000
0000
,
0000
0000
0000
0000
,
0000
0000
0000
0000
,
0001
0000
0001
0000
0000
0001
0000
0000
0001
0000
0000
0000
0000
0000
0000
0000
,
1000
1000
0010
1000
,
0001
1000
0100
0000
,
0001
0001
0010
0001
,
1000
0010
0100
0001
,
1000
1000
0010
1000
,
1000
0001
0100
0000
,
0001
0001
0010
0001
,
1000
0001
0100
0001
,
1000
0001
0010
0000
,
0001
0000
0001
0000
1000
1000
1000
0000
,
0001
1000
0010
0000
,
1000
0000
0001
0000
1000
1000
1000
0000
,
1000
0001
0010
0000
,
1000
0000
1000
0000
0001
0001
0001
0000
,
0001
1000
0010
0000
,
0001
0001
1000
1001
,
0010
0000
1000
0001
,
1000
0000
1000
0001
,
0100
0001
1000
0001
,
0010
0000
0001
1000
,
0010
0000
1000
0001
,
0001
0000
0001
1000
,
0100
1000
0001
1000
,
0010
0000
1000
1001
,
1000
0100
0010
0000
,
0001
1000
0000
0000
1000
0000
0001
0000
,
0001
0100
0010
0000
,
0010
1000
0000
0000
1000
0001
0000
0000
,
1000
0001
0010
0000
,
0001
0000
1000
0000
0010
0010
0010
0000
,
1000
0100
0010
0000
,
0100
0100
0000
0000
0110
0000
1001
0000
,
1000
1000
0010
1000
,
0001
1000
0100
0000
,
0001
0001
0010
0001
,
0001
0010
0100
1000
,
1000
1000
0010
1000
,
1000
0001
0100
0000
,
0001
0001
0010
0001
,
1000
0001
0100
0010
,
1000
0010
0010
1000
,
0001
1000
0001
0000
,
0001
0010
0010
0001
,
1000
1001
0100
0010
,
1000
0010
0010
1000
,
0001
1000
0001
0000
,
0001
0010
0010
0001
,
1000
1001
0010
0100
,
0110
0000
0000
0000
;

//---------------dance-single - ----------------
#NOTES:
     dance-single:
     :
     Challenge:
     7:
     0.378373,0.412642,0.086682,0.000000,0.043341,275.000000,266.000000,9.000000,0.000000,0.000000,0.000000,0.378373,0.412642,0.086682,0.000000,0.043341,275.000000,266.000000,9.000000,0.000000,0.000000,0.000000:
0000
0000
0000
0000
,
0000
0000
0000
0000
,
0000
0000
0000
0000
,
0000
0000
0000
0000
,
0000
0000
0000
0000
,
0000
0000
0000
0000
,
0000
0000
0000
0000
,
0000
0000
0000
0000
,
0100
0000
0001
0000
0000
1000
0000
0000
0100
0000
0000
0000
1001
0000
0000
0000
,
1000
0001
1000
0010
0100
0000
0001
0000
,
1000
0100
1000
0001
0001
0000
1000
0000
,
0001
1000
0001
0010
0100
0000
1000
0000
,
0001
0001
0001
0000
1000
0000
0001
0000
,
1000
0001
1000
0010
0100
0000
0001
0000
,
0001
0100
0001
1000
1000
0000
0001
0000
,
0001
1000
0001
0010
0100
0000
1000
0000
,
0001
1000
0001
0000
1000
0000
1001
0000
,
0010
1001
0100
0001
,
1000
0010
0000
0000
1000
0001
0000
0000
1000
0000
0100
0000
1000
0000
0000
0000
,
0010
1001
0100
1000
,
1000
0010
0000
0000
0100
0001
0000
0000
1000
0000
0010
0000
1000
0000
0000
0000
,
0010
1001
0100
0001
,
0001
0010
0000
0000
0001
1000
0000
0000
0001
0000
0100
0000
0001
0000
0000
0000
,
0010
1001
0100
1000
,
1000
0010
0000
0000
0100
0001
0000
0000
1000
0000
0010
0000
0100
0000
0000
0000
,
0001
0100
0010
1000
,
0001
0000
1000
0000
0010
0010
1000
0000
,
0001
0000
1000
0000
0010
1000
0010
0000
,
1000
0100
0010
0001
,
0001
0100
0010
1000
,
1000
0000
0001
0000
0010
0010
0001
0000
,
1000
0000
0001
0000
0010
0001
0010
0000
,
0001
1000
0100
0000
0010
0001
1000
0000
,
0010
0000
0100
0001
,
0001
0100
0000
0000
1000
0100
0001
0000
,
0010
0000
0100
1000
,
0001
0010
0000
0000
1000
0010
0000
0000
,
0010
1001
0100
0001
,
0100
0010
0100
0001
0100
0010
1000
0000
,
0010
0000
0100
0001
,
1000
0001
0000
0000
1100
0000
0101
0000
,
1000
0001
1000
0010
0100
0000
0001
0000
,
1000
0100
1000
0001
0001
0000
1000
0000
,
0001
1000
0001
0010
0100
0000
1000
0000
,
1000
1000
1000
0000
0001
0000
1000
0000
,
1000
0001
1000
0010
0100
0000
0001
0000
,
0001
0100
0001
1000
1000
0000
0001
0000
,
0001
1000
0001
0010
0100
0000
1000
0000
,
0001
0010
0001
0000
1000
0000
0100
0000
,
1000
0001
0100
0010
1000
0000
0001
0000
,
1000
0010
1000
0001
0001
1000
1000
0000
,
0001
1000
0100
0010
0001
0000
1000
0000
,
0001
0001
0100
0010
1000
0000
0001
0000
,
1000
0001
0100
0010
1000
0000
0001
0000
,
0001
0010
0001
1000
1000
0001
0001
0000
,
0001
1000
0100
0010
0001
0000
1000
0000
,
0001
0001
0100
0010
1000
1000
0001
1000
,
0010
1000
0000
0000
0000
0000
0000
0000
;
