#TITLE:Up, Down, Left, Right;
#SUBTITLE:;
#ARTIST:From Twinkle, Twinkle Little Star;
#TITLETRANSLIT:;
#SUBTITLETRANSLIT:;
#ARTISTTRANSLIT:;
#GENRE:;
#CREDIT:;
#BANNER:Up Down Left Right.png;
#BACKGROUND:Up Down Left Right-bg.png;
#LYRICSPATH:;
#CDTITLE:;
#MUSIC:Up, Down, Left, Right.ogg;
#OFFSET:1.771943;
#SAMPLESTART:17.813984;
#SAMPLELENGTH:15.000000;
#LASTBEATHINT:1.722461;
#SELECTABLE:YES;
#DISPLAYBPM:135.000000;
#BPMS:0.000000=135.000000
;
#STOPS:
;
#BGCHANGES:3.500=Up Down Left Right.avi=1.000=1=0=1===CrossFade==,
220.000=Up Down Left Right-bg.png=1.000=0=0=1=====,
99999=-nosongbg-=1.000=0=0=0 // don't automatically add -songbackground-
;
#KEYSOUNDS:;
#ATTACKS:;

//---------------dance-single - ----------------
#NOTES:
     dance-single:
     :
     Beginner:
     1:
     0.042300,0.105751,0.000000,0.000000,0.000000,28.000000,28.000000,0.000000,0.000000,0.000000,0.000000,0.042300,0.105751,0.000000,0.000000,0.000000,28.000000,28.000000,0.000000,0.000000,0.000000,0.000000:
0000
0000
0000
0000
,
0000
0000
0000
0000
,
0000
0000
0000
0000
,
0000
0000
0000
0000
,
0000
0000
0000
0000
,
0000
0000
0000
0000
,
0000
0000
0000
0000
,
0000
0000
0000
0000
,
0000
0000
0000
0000
,
0000
0000
0000
0000
,
1000
0000
0000
0000
,
0000
0000
0000
0000
,
1000
0000
0000
0000
,
0000
0000
0000
0000
,
0001
0000
0000
0000
,
0000
0000
0000
0000
,
1000
0000
0000
0000
,
0000
0000
0000
0000
,
0001
0000
0000
0000
,
0000
0000
0000
0000
,
0000
0000
0000
0000
,
0000
0000
0000
0000
,
0000
0000
0000
0000
,
0000
0000
0000
0000
,
0001
0000
0001
0000
,
0000
0000
0000
0000
,
1000
0000
1000
0000
,
0000
0000
0000
0000
,
0001
0000
0001
0000
,
0000
0000
0000
0000
,
0000
0000
0000
0000
,
0000
0000
0000
0000
,
0000
0000
0000
0000
,
1000
0000
0001
0000
,
1000
0000
0000
0000
,
0000
0000
0000
0000
,
0000
0000
0000
0000
,
0001
0000
1000
0000
,
0001
0000
0000
0000
,
0000
0000
0000
0000
,
0000
0000
0000
0000
,
1000
0000
1000
0000
,
0001
0000
1000
0000
,
0000
0000
0000
0000
,
0000
0000
0000
0000
,
0001
0000
0001
0000
,
1000
0000
0001
0000
,
0000
0000
0000
0000
,
0000
0000
0000
0000
,
1000
0000
1000
0000
,
0001
0000
0000
0000
;

//---------------dance-single - ----------------
#NOTES:
     dance-single:
     :
     Easy:
     1:
     0.054386,0.132188,0.000000,0.000000,0.000000,36.000000,36.000000,0.000000,0.000000,0.000000,0.000000,0.054386,0.132188,0.000000,0.000000,0.000000,36.000000,36.000000,0.000000,0.000000,0.000000,0.000000:
0000
0000
0000
0000
,
0000
0000
0000
0000
,
0000
0000
0000
0000
,
0000
0000
0000
0000
,
0000
0000
0000
0000
,
0000
0000
0000
0000
,
0000
0000
0000
0000
,
0000
0000
0000
0000
,
0000
0000
0000
0000
,
0000
0000
0000
0000
,
0001
0000
0000
0000
,
0000
0000
0000
0000
,
1000
0000
1000
0000
,
0000
0000
0000
0000
,
0001
0000
0001
0000
,
0000
0000
0000
0000
,
0010
0000
0010
0000
,
0000
0000
0000
0000
,
1000
0000
0001
0000
,
0000
0000
0000
0000
,
0000
0000
0000
0000
,
0000
0000
0000
0000
,
0000
0000
0000
0000
,
0000
0000
0000
0000
,
1000
0000
0010
0000
,
0000
0000
0000
0000
,
0001
0000
0010
0000
,
0000
0000
0000
0000
,
0010
0000
0001
0000
,
0000
0000
0000
0000
,
0000
0000
0000
0000
,
0000
0000
0000
0000
,
0000
0000
0000
0000
,
1000
0000
1000
0000
,
0001
0000
0001
0000
,
0000
0000
0000
0000
,
0000
0000
0000
0000
,
1000
0000
0001
0000
,
0001
0000
1000
0000
,
0000
0000
0000
0000
,
0000
0000
0000
0000
,
0001
0000
0010
0000
,
1000
1000
1000
0000
,
0000
0000
0000
0000
,
0000
0000
0000
0000
,
1000
0000
0100
0000
,
0001
0001
0001
0000
,
0000
0000
0000
0000
,
0000
0000
0000
0000
,
0010
0000
0010
0000
,
0100
0000
0000
0000
;

//---------------dance-single - ----------------
#NOTES:
     dance-single:
     :
     Medium:
     3:
     0.197905,0.242698,0.063450,0.000000,0.000000,131.000000,125.000000,6.000000,0.000000,0.000000,0.000000,0.197905,0.242698,0.063450,0.000000,0.000000,131.000000,125.000000,6.000000,0.000000,0.000000,0.000000:
0000
0000
0000
0000
,
0000
0000
0000
0000
,
0000
0000
0000
0000
,
0000
0000
0000
0000
,
0000
0000
0000
0000
,
0000
0000
0000
0000
,
0000
0000
0000
0000
,
0000
0000
0000
0000
,
0000
0000
0000
0000
,
1000
0000
0010
0000
,
0110
0000
0001
0001
,
1000
0000
0100
0010
,
0010
0001
0001
0000
,
0001
0000
1000
1000
,
0010
0010
1000
0000
,
0100
0000
0100
0010
,
0010
1000
1000
0000
,
1000
0000
0001
0001
,
0010
0010
0001
0000
,
1000
1000
0100
0000
,
0001
1000
0100
0000
,
1001
0000
0010
0010
,
0001
0001
0100
0000
,
0010
0000
1000
0000
,
0010
1000
1000
0001
,
0001
0000
1000
0000
,
0010
1000
1000
0010
,
0010
0000
0001
0000
,
0010
0001
0001
1000
,
1000
0000
0001
0000
,
1001
0000
0100
0010
,
0010
0000
1000
0100
,
1000
0001
0001
0000
,
1000
0010
1000
0010
,
0100
0000
0001
0010
,
0010
0000
0001
0100
,
0001
1000
1000
0000
,
0001
0010
0001
0010
,
0100
0000
1001
1000
,
1000
0000
0010
0010
,
0100
0001
0010
0000
,
1000
0000
0010
1000
,
1000
0001
1000
0000
,
1000
0000
0010
0100
,
0100
0001
0001
0000
,
1000
0000
0001
1000
,
1000
0001
0010
0000
,
1000
0100
0010
0000
,
1000
0001
0110
0000
,
0100
0001
0010
1000
,
0000
0000
0000
0000
,
1001
0000
0000
0000
;

//---------------dance-single - ----------------
#NOTES:
     dance-single:
     :
     Hard:
     4:
     0.240205,0.296631,0.095176,0.000000,0.000000,159.000000,150.000000,9.000000,0.000000,0.000000,0.000000,0.240205,0.296631,0.095176,0.000000,0.000000,159.000000,150.000000,9.000000,0.000000,0.000000,0.000000:
0000
0000
0000
0000
,
0000
0000
0000
0000
,
0000
0000
0000
0000
,
0000
0000
0000
0000
,
0000
0000
0000
0000
,
0000
0000
0000
0000
,
0000
0000
0000
0000
,
0000
0000
0000
0000
,
0000
0000
0000
0000
,
0001
0010
0100
1000
,
1001
0000
0001
0100
,
0010
0000
0010
0000
1000
1000
0000
0000
,
0001
0001
0000
0001
0000
0000
1000
0000
,
0001
0000
0100
0000
0010
0010
0000
0000
,
1000
1000
0000
1000
0000
0000
0000
0000
,
0010
0000
0010
0000
0100
0100
0000
0000
,
1000
1000
0000
1000
0000
0000
0001
0000
,
1000
0000
0100
0000
0010
0010
0000
0000
,
0001
0001
0000
0001
0000
0000
0000
0000
,
0100
1000
1000
0010
,
0100
0001
1000
0010
,
0110
0000
1000
0001
,
0100
0010
1000
0000
,
0001
0100
0001
1000
,
0010
0100
0001
1000
,
0001
0010
0001
1000
,
0010
0100
0010
1000
,
1000
0100
1000
0001
,
0010
0100
1000
0001
,
1000
0010
1000
0001
,
1001
0000
0100
0010
,
1000
0000
0001
0010
,
0001
1000
0001
0100
,
0010
0000
1000
0100
,
0010
0000
0110
1000
,
0001
0000
1000
0010
,
1000
0001
1000
0100
,
0010
0000
0001
0100
,
0001
0001
1000
1000
,
0001
0000
0010
0100
,
1000
0010
0110
0000
,
1000
0001
0100
0100
,
0001
1000
0001
1000
,
0100
0000
0010
0100
,
1000
0100
0110
0000
,
0010
0001
0100
0100
,
0001
1000
0010
1000
,
0001
0100
0010
1000
,
0100
1000
0010
1001
,
0100
0001
0010
0110
,
0000
0000
0000
0000
,
1010
0000
0000
0000
;

//---------------dance-single - ----------------
#NOTES:
     dance-single:
     :
     Challenge:
     6:
     0.348977,0.404497,0.200926,0.000000,0.037013,231.000000,212.000000,19.000000,0.000000,0.000000,0.000000,0.348977,0.404497,0.200926,0.000000,0.037013,231.000000,212.000000,19.000000,0.000000,0.000000,0.000000:
0000
0000
0000
0000
,
0000
0000
0000
0000
,
0000
0000
0000
0000
,
0000
0000
0000
0000
,
0000
0000
0000
0000
,
0000
0000
0000
0000
,
0000
0000
0000
0000
,
0000
0000
0000
0000
,
0000
0000
0000
0000
,
0100
1000
0001
1001
,
1010
0000
0000
0000
0000
0001
1000
0100
,
1000
0000
0001
0100
0010
0010
0000
0000
,
0100
0100
0000
1001
0000
0000
0001
0000
,
0110
0000
0110
0000
1000
0001
0000
0000
,
0010
0001
0000
1000
0000
0000
1100
0000
,
0001
0000
0001
0000
0010
0010
0000
0000
,
0100
0100
0000
1001
0000
0000
1000
0000
,
0110
0000
0110
0000
0001
1000
0000
0000
,
0010
1000
0000
0001
0000
0000
0101
0000
,
1000
0000
0010
0100
0000
0000
0010
0000
,
1000
0000
0010
0100
0000
0001
0000
0010
,
0100
0000
1001
0000
0001
1000
0001
0000
,
0100
0010
1000
0010
0100
0001
1000
0001
,
0010
0000
0001
0001
0100
0000
0010
0010
,
1000
0000
0100
0100
0010
0000
1001
0000
,
1000
0000
0001
0001
0001
0000
0010
0010
,
0010
0000
0100
0100
0100
0000
1001
0000
,
0010
0000
1000
1000
0100
0000
0010
0010
,
0001
0000
0100
0100
0010
0000
1001
0000
,
0001
0000
1000
1000
1000
0000
0010
0010
,
0110
0000
0000
0001
,
1000
1000
0001
0010
,
0001
0100
1000
0000
0001
0100
1000
0000
,
0010
0000
1000
0000
0001
0100
0001
0000
,
1000
0100
0010
0100
1000
0000
1100
0000
,
0001
0001
1000
0010
,
1000
0100
0001
0000
1000
0100
0001
0000
,
0010
0000
0001
0000
1000
0100
1000
0000
,
0010
0100
0001
0000
0010
0100
1000
1000
,
0001
0000
0000
0001
0000
0000
0001
0000
1000
0000
0000
1000
0000
0000
1000
0000
,
0001
1000
0110
0001
,
0010
0000
0000
0010
0000
0000
0010
0000
0100
0000
0000
0000
0100
0000
0000
0000
,
1000
0100
0010
0000
0100
0010
0001
0000
,
0100
0000
0000
0001
0000
0000
0001
0000
1000
0000
0000
1000
0000
0000
0010
0000
,
0100
0010
0110
0001
,
1000
0000
0000
0010
0000
0000
0010
0000
0100
0000
0000
0100
0000
0000
0001
0000
,
1000
0100
1000
0000
0001
0010
0001
0000
,
0010
0100
1000
0000
0001
0010
0100
0000
,
1000
0100
0010
0001
0100
0010
0100
0000
,
0010
0100
0001
1000
0001
0010
0100
1000
,
0000
0000
0000
0000
,
0101
0000
0000
0000
;
