#TITLE:Underground Mozart;
#SUBTITLE:;
#ARTIST:From Eine Kleine Nachtmusik;
#TITLETRANSLIT:;
#SUBTITLETRANSLIT:;
#ARTISTTRANSLIT:;
#GENRE:;
#CREDIT:;
#BANNER:Underground Mozart.png;
#BACKGROUND:Underground Mozart-bg.png;
#LYRICSPATH:;
#CDTITLE:;
#MUSIC:Underground Mozart.ogg;
#OFFSET:-0.055979;
#SAMPLESTART:60.020000;
#SAMPLELENGTH:15.000000;
#SELECTABLE:YES;
#DISPLAYBPM:168.000000;
#BPMS:0.000000=168.000000
;
#STOPS:
;
#BGCHANGES:-1.000=Underground Mozart.avi=1.000=1=0=1===CrossFade==,
288.000=Underground Mozart-bg.png=1.000=1=0=1===CrossFade==,
99999=-nosongbg-=1.000=0=0=0 // don't automatically add -songbackground-
;
#KEYSOUNDS:;
#ATTACKS:;

//---------------dance-single - ----------------
#NOTES:
     dance-single:
     :
     Beginner:
     1:
     0.058716,0.097496,0.000000,0.000000,0.000000,43.000000,43.000000,0.000000,0.000000,0.000000,0.000000,0.058716,0.097496,0.000000,0.000000,0.000000,43.000000,43.000000,0.000000,0.000000,0.000000,0.000000:
0000
0000
0000
0000
,
0000
0000
0000
0000
,
0000
0000
0000
0000
,
0000
0000
0000
0000
,
0000
0000
0000
0000
,
0000
0000
0000
0000
,
0000
0000
0000
0000
,
0000
0000
0000
0000
,
1000
0000
0000
0000
,
0000
0000
0000
0000
,
0001
0000
0000
0000
,
1000
0000
0000
0000
,
1000
0000
0000
0000
,
0000
0000
0000
0000
,
0001
0000
0000
0000
,
1000
0000
0000
0000
,
1000
0000
0000
0000
,
0000
0000
0000
0000
,
0001
0000
0000
0000
,
1000
0000
0000
0000
,
0001
0000
0000
0000
,
0000
0000
0000
0000
,
1000
0000
0000
0000
,
1000
0000
0000
0000
,
0001
0000
0000
0000
,
0000
0000
0000
0000
,
0000
0000
0000
0000
,
0000
0000
0000
0000
,
1000
0000
0000
0000
,
0000
0000
0000
0000
,
0000
0000
0000
0000
,
0000
0000
0000
0000
,
0001
0000
0000
0000
,
0000
0000
0000
0000
,
0000
0000
0000
0000
,
0000
0000
0000
0000
,
0001
0000
0000
0000
,
1000
0000
0000
0000
,
1000
0000
0000
0000
,
0001
0000
0000
0000
,
0001
0000
0000
0000
,
1000
0000
0000
0000
,
0001
0000
0000
0000
,
0000
0000
0000
0000
,
1000
0000
0000
0000
,
0001
0000
0000
0000
,
0001
0000
0000
0000
,
0000
0000
0000
0000
,
1000
0000
0000
0000
,
0001
0000
0000
0000
,
0001
0000
0000
0000
,
0000
0000
0000
0000
,
1000
0000
0000
0000
,
0001
0000
0000
0000
,
1000
0000
0000
0000
,
0000
0000
0000
0000
,
0001
0000
0000
0000
,
0001
0000
0000
0000
,
1000
0000
0000
0000
,
0001
0000
0000
0000
,
0000
0000
0000
0000
,
0001
0000
0000
0000
,
0001
0000
0000
0000
,
1000
0000
0000
0000
,
1000
0000
0000
0000
,
0001
0000
0000
0000
,
1000
0000
0000
0000
,
1000
0000
0000
0000
,
0001
0000
0000
0000
;

//---------------dance-single - ----------------
#NOTES:
     dance-single:
     :
     Easy:
     1:
     0.072371,0.162493,0.009558,0.000000,0.000000,53.000000,52.000000,1.000000,0.000000,0.000000,0.000000,0.072371,0.162493,0.009558,0.000000,0.000000,53.000000,52.000000,1.000000,0.000000,0.000000,0.000000:
0000
0000
0000
0000
,
0000
0000
0000
0000
,
0000
0000
0000
0000
,
0000
0000
0000
0000
,
0000
0000
0000
0000
,
0000
0000
0000
0000
,
0000
0000
0000
0000
,
0000
0000
0000
0000
,
0001
0000
0000
0000
,
0000
0000
0000
0000
,
0010
0000
0000
0000
,
1000
0000
0000
0000
,
1000
0000
0000
0000
,
0000
0000
0000
0000
,
0001
0000
0000
0000
,
1000
0000
0000
0000
,
1000
1000
0000
0000
,
0000
0000
0000
0000
,
1000
0000
0000
0000
,
0001
0000
0000
0000
,
0001
0000
0000
0000
,
0000
0000
0000
0000
,
0100
0000
0000
0000
,
0001
0000
0000
0000
,
0001
0001
0000
0000
,
0000
0000
0000
0000
,
0000
0000
0000
0000
,
0000
0000
0000
0000
,
1000
1000
0000
0000
,
0000
0000
0000
0000
,
0000
0000
0000
0000
,
0000
0000
0000
0000
,
0010
0000
0000
0000
,
0000
0000
0000
0000
,
0000
0000
0000
0000
,
0000
0000
0000
0000
,
1000
0000
0000
0000
,
0001
0000
0000
0000
,
1000
0000
0000
0000
,
0001
0001
0001
0000
,
1000
0000
0000
0000
,
1000
0000
0000
0000
,
0001
0001
0000
0000
,
0000
0000
0000
0000
,
0010
0000
0000
0000
,
0001
0000
0000
0000
,
0001
0000
0000
0000
,
0000
0000
0000
0000
,
1000
0000
0000
0000
,
0001
0000
0000
0000
,
1000
1000
0000
0000
,
0000
0000
0000
0000
,
0001
0000
0000
0000
,
1000
0000
0000
0000
,
1000
0000
0000
0000
,
0000
0000
0000
0000
,
0010
0000
0000
0000
,
1000
1000
0000
0000
,
0001
0001
0000
0000
,
1000
0000
0000
0000
,
0000
0000
0000
0000
,
1000
0000
0000
0000
,
0010
0000
0000
0000
,
0001
0000
0000
0000
,
0010
0000
0000
0000
,
1000
0000
0000
0000
,
0001
0000
0000
0000
,
0100
0000
0000
0000
,
1001
0000
0000
0000
;

//---------------dance-single - ----------------
#NOTES:
     dance-single:
     :
     Medium:
     3:
     0.236229,0.324986,0.095584,0.000000,0.000000,173.000000,163.000000,10.000000,0.000000,0.000000,0.000000,0.236229,0.324986,0.095584,0.000000,0.000000,173.000000,163.000000,10.000000,0.000000,0.000000,0.000000:
0000
0000
0000
0000
,
0000
0000
0000
0000
,
0000
0000
0000
0000
,
0000
0000
0000
0000
,
0000
0000
0000
0000
,
0000
0000
0000
0000
,
0000
0000
0000
0000
,
1000
0000
0000
1000
0000
0000
1000
0000
,
0010
0000
0001
0000
,
1000
0000
0010
1000
,
1000
0000
0001
0000
,
0010
0000
0001
0010
,
0010
0000
0100
0000
,
0001
0000
0010
0001
,
0001
0000
1000
0000
,
0001
0000
0000
0001
0000
0000
0010
0000
,
0010
0000
1000
0000
,
1000
0000
0010
1000
,
1000
0000
0100
0000
,
0010
0000
1000
0001
,
0001
0000
0100
0000
,
0001
0000
0010
0001
,
1000
0000
0001
0000
,
0010
0000
0000
1000
0000
0000
1000
0000
,
1000
0000
1001
0000
,
0001
0001
0010
0000
,
0010
0000
0110
0000
,
0100
1000
1000
0000
,
0001
0000
0010
0000
,
0100
0000
1000
0000
,
1000
0000
0010
0000
,
0100
0000
0001
0000
,
1000
0100
0001
0000
,
0001
1000
0001
0000
,
0010
1000
0100
0000
,
0100
0010
0001
0000
,
0010
0000
1001
0000
,
1000
0000
0110
0000
,
0001
0001
1001
0000
,
1000
0100
1000
0000
,
0010
0010
0110
0000
,
0001
0000
0000
0001
0000
0000
0001
0000
,
0010
0000
0001
0000
,
1000
0000
0010
1000
,
0001
0000
1000
0000
,
0010
0000
1000
0010
,
0010
0000
0100
0000
,
0001
0000
0010
0001
,
1000
0000
0001
0000
,
1000
0000
0000
1000
0000
0000
0010
0000
,
0010
0000
1000
0000
,
1000
0000
0010
1000
,
0001
0000
0100
0000
,
0010
0000
0001
1000
,
1000
0000
0100
0000
,
0001
0000
0010
0001
,
0001
0000
0010
0010
,
1000
0000
0001
0001
,
0100
0000
1000
0001
,
1000
0000
0100
1000
,
0010
0000
0000
0001
0000
0000
0001
0000
,
1001
0000
0010
0010
,
0001
0001
1000
0000
,
1001
0000
0010
0010
,
1000
1000
0001
0000
,
0001
0001
1000
1000
,
0001
1000
0001
1000
,
1001
0000
0100
0100
,
1001
0000
0000
0000
;

//---------------dance-single - ----------------
#NOTES:
     dance-single:
     :
     Hard:
     5:
     0.303138,0.389983,0.172051,0.000000,0.000000,222.000000,204.000000,18.000000,0.000000,0.000000,0.000000,0.303138,0.389983,0.172051,0.000000,0.000000,222.000000,204.000000,18.000000,0.000000,0.000000,0.000000:
0000
0000
0000
0000
,
0000
0000
0000
0000
,
0000
0000
0000
0000
,
0000
0000
0000
0000
,
1000
0000
0100
0000
,
0001
0100
1000
0000
,
0010
0000
0001
0000
,
0010
0000
0000
0100
0000
0000
0010
0000
,
0010
0000
1000
0000
,
0001
0001
0010
1000
,
1000
0000
0001
0100
,
0100
0000
0010
0001
,
1000
0000
0010
0100
,
1000
0000
0010
0001
,
0001
0000
1000
0100
,
0001
0000
0000
1000
0000
0000
1001
0000
,
0010
0000
0001
1000
,
0001
0000
0010
1000
,
0100
0000
1000
0010
,
0001
0000
0100
0010
,
1000
0000
1000
0010
,
1000
0000
0010
0001
,
1000
0000
0001
0100
,
0010
0000
0000
0100
0000
0000
0110
0000
,
1000
1000
0100
1000
,
0100
0010
0100
0000
,
0010
0001
0010
0001
,
0001
0010
0100
0000
,
0100
0000
1001
0000
,
0010
0100
0110
0000
,
0001
0000
1001
0000
,
0010
0001
0100
1000
,
0010
0010
0001
0100
,
0001
1000
0001
1000
,
1000
0010
0100
0001
,
0001
1000
1000
0100
,
1000
0000
1001
0010
,
0001
1000
0010
0100
,
0100
0000
0001
0000
,
1001
1001
0100
0000
,
0010
0000
1000
0000
,
0010
0000
0000
0110
0000
0000
0010
0000
,
0010
0000
1000
0001
,
0001
0000
0010
1000
,
0001
0000
1000
0100
,
0100
0000
0010
1000
,
0001
0000
0010
0100
,
1000
0000
0010
0001
,
1000
0000
0001
0100
,
1000
0000
0000
0001
0000
0000
1001
0000
,
0010
0000
0001
1000
,
0001
0000
0010
1000
,
0100
0000
0001
0010
,
1000
0000
0100
0010
,
0001
0000
0001
0010
,
1000
0000
0010
0001
,
0100
0000
0001
0100
,
0010
1000
1000
0001
,
0100
0010
1000
0100
,
0010
0001
0100
0100
,
1001
0000
0000
1001
0000
0000
0010
0000
,
0001
0001
1000
1001
,
0100
0001
1000
0100
,
1000
1000
0001
1001
,
0100
1000
0001
0100
,
0001
0010
0100
1001
,
1000
0100
0010
1001
,
0010
0100
1001
0000
,
0110
0000
0000
0000
;

//---------------dance-single - ----------------
#NOTES:
     dance-single:
     :
     Challenge:
     7:
     0.420570,0.584974,0.143376,0.000000,0.000000,308.000000,293.000000,15.000000,0.000000,0.000000,0.000000,0.420570,0.584974,0.143376,0.000000,0.000000,308.000000,293.000000,15.000000,0.000000,0.000000,0.000000:
0000
0000
0000
0000
,
0000
0000
0000
0000
,
0000
0000
0000
0000
,
0000
0000
0000
0000
,
1000
0000
0000
0001
0100
0000
0000
0010
,
1000
0001
1000
0001
0100
0000
0000
0000
,
0001
0000
0000
0100
0010
0000
0000
0100
,
0001
1000
0100
0010
0100
0000
0000
0000
,
0001
0000
1000
0000
0000
0010
1000
0000
,
0001
0000
0100
0000
0000
0001
1000
0000
,
1000
0000
0100
0000
0000
0010
0100
0000
,
1000
1000
0100
0000
0000
0010
0000
0001
,
0100
0000
0001
0000
0000
0001
1000
0000
,
1000
0000
0100
0000
0000
1000
0001
0000
,
0001
0000
0100
0000
0000
0010
0100
0000
,
0001
0100
0100
0001
0010
0010
0001
1000
,
1000
0000
0001
0000
0000
0010
0001
0000
,
0001
0000
0100
0000
0000
0001
1000
0000
,
0010
0000
0100
0000
0000
0001
1000
0000
,
0100
0100
1000
0000
0000
0010
0000
1000
,
0100
0000
0010
0000
0000
0001
1000
0000
,
1000
0000
0100
0000
0000
1000
0001
0000
,
1000
0000
0100
0000
0000
0010
0100
0000
,
1000
0001
0001
1000
0010
0010
1000
0100
,
1000
0000
1000
0000
1100
0000
0000
0010
,
0100
0010
0100
0000
0110
0000
0000
0001
,
0010
0010
0011
0001
,
0001
0000
1001
0000
1000
0001
1000
0000
,
0001
0100
1000
0100
,
0001
0100
0010
1000
,
0010
0100
0001
0100
,
0001
1000
0010
0100
,
0001
0000
1000
0000
1000
0001
0000
0001
,
0000
1000
0100
0000
0000
1000
0001
0100
,
0000
0100
0000
0001
1000
0000
0000
0001
,
0000
0001
0010
0000
0000
0001
0100
0000
,
0010
1000
0001
0100
,
0001
0001
1000
1000
,
0010
0000
0000
0100
0001
0000
0000
1000
,
0100
0001
0100
1000
0100
0000
0000
0000
,
0001
0000
0000
1000
0010
0000
0000
0100
,
0001
1000
0100
0010
0001
0000
0000
0000
,
0001
0000
1000
0000
0000
0010
1000
0000
,
0001
0000
0100
0000
0000
0001
1000
0000
,
0001
0000
0100
0000
0000
0010
0100
0000
,
0001
0001
0100
0000
0000
0010
0000
1000
,
0100
0000
1000
0000
0000
1000
0001
0000
,
1000
0000
0100
0000
0000
1000
0001
0000
,
1000
0000
0100
0000
0000
0010
0100
0000
,
1000
0100
0100
1000
0010
0010
1000
0001
,
1000
0000
0001
0000
0000
0010
0001
0000
,
0001
0000
0100
0000
0000
0001
1000
0000
,
0010
0000
0100
0000
0000
1000
0001
0000
,
0100
0100
0001
0000
0000
0010
0000
0001
,
0100
0000
0010
0000
0000
1000
0001
0000
,
1000
0000
0100
0000
0000
1000
0001
0000
,
0010
0000
1000
0000
0000
0010
0001
0000
,
0100
0100
0010
0000
0000
0010
0000
0100
,
0001
0000
0100
0000
0000
0010
1000
0000
,
0100
0000
0010
0000
0000
0001
0001
0000
,
1000
0001
0100
0001
1000
0100
0010
0000
,
0001
0000
1000
0100
1000
0001
0010
0001
,
0100
0010
1000
0001
0100
0000
0000
0000
,
1000
0000
0001
0100
0001
1000
0010
1000
,
0100
0010
0001
1000
0100
0000
0000
0000
,
1001
1001
0110
0110
,
0101
0101
1010
1010
,
1001
0010
0110
0100
,
1001
0000
0000
0000
;
