#TITLE:Starring Wario!;
#SUBTITLE:;
#ARTIST:From Wario World;
#TITLETRANSLIT:;
#SUBTITLETRANSLIT:;
#ARTISTTRANSLIT:;
#GENRE:;
#CREDIT:;
#BANNER:Starring Wario!.png;
#BACKGROUND:Starring Wario!-bg.png;
#LYRICSPATH:;
#CDTITLE:;
#MUSIC:Starring Wario!.ogg;
#OFFSET:1.959835;
#SAMPLESTART:7.822000;
#SAMPLELENGTH:15.000000;
#LASTBEATHINT:1.954532;
#SELECTABLE:YES;
#DISPLAYBPM:123.000000;
#BPMS:0.000000=123.000000
;
#STOPS:
;
#BGCHANGES:3.000=Starring Wario!.avi=1.000=1=0=1===CrossFade==,
208.000=Starring Wario!-bg.png=1.000=1=0=1===CrossFade==,
99999=-nosongbg-=1.000=0=0=0 // don't automatically add -songbackground-
;
#KEYSOUNDS:;
#ATTACKS:;

//---------------dance-single - ----------------
#NOTES:
     dance-single:
     :
     Beginner:
     1:
     0.166269,0.225119,0.051047,0.000000,0.000000,114.000000,109.000000,5.000000,0.000000,0.000000,0.000000,0.166269,0.225119,0.051047,0.000000,0.000000,114.000000,109.000000,5.000000,0.000000,0.000000,0.000000:
0000
0000
0000
0000
,
0000
0000
0000
0000
,
0000
0000
0000
0000
,
0000
0000
0000
0000
,
0000
0000
0000
0000
,
0001
1000
0001
0000
,
1000
0000
1000
0000
,
1000
0001
1000
0000
,
0001
0000
0001
0000
,
0001
1000
0001
0000
,
1000
0000
1000
0000
,
1000
0001
1000
0000
,
1001
0000
0000
0000
,
1000
1000
0001
0000
,
0001
0001
1000
0000
,
1000
1000
0001
0000
,
1000
0001
1000
0000
,
0001
1000
0001
0000
,
1000
1000
1000
0000
,
1000
0001
1000
0000
,
0001
0001
0001
0000
,
1000
1001
0000
0000
,
0001
0000
1000
0000
,
0001
1000
0001
0000
,
1000
1000
1000
0000
,
0001
0000
1000
0000
,
0001
0000
1000
0000
,
1000
0000
0001
0000
,
1000
0000
0001
0000
,
1000
1000
1000
0000
,
0001
0001
0001
0000
,
1000
0001
1000
0001
,
1001
0000
0000
0000
,
1000
0000
1000
0000
,
0001
0000
0001
0000
,
1000
0000
1000
0000
,
0001
0000
0001
0000
,
1000
0000
0001
0000
,
0001
0000
1000
0000
,
1000
0000
0001
0000
,
0001
0000
1000
0000
,
0001
0001
0001
0000
,
1000
1000
1000
0000
,
0001
0000
1000
0000
,
0001
0000
1000
0000
,
0001
0000
1000
0000
,
0001
0000
1001
0000
,
1000
1000
1000
0000
,
0001
0001
0001
0000
,
1001
0000
0000
0000
;

//---------------dance-single - ----------------
#NOTES:
     dance-single:
     :
     Easy:
     1:
     0.163352,0.203680,0.061257,0.000000,0.000000,112.000000,106.000000,6.000000,0.000000,0.000000,0.000000,0.163352,0.203680,0.061257,0.000000,0.000000,112.000000,106.000000,6.000000,0.000000,0.000000,0.000000:
0000
0000
0000
0000
,
0000
0000
0000
0000
,
0000
0000
0000
0000
,
0000
0000
0000
0000
,
0000
0000
0000
0000
,
1000
0010
1000
0000
,
0001
0000
0001
0000
,
0001
0010
0001
0000
,
1000
0000
1000
0000
,
0001
0001
0010
0000
,
1000
0000
0010
0000
,
0001
0100
0001
0000
,
1001
0000
0000
0000
,
0001
0000
0010
0000
,
0001
0000
0100
0000
,
1000
0000
0010
0000
,
1000
0000
0000
0000
,
0001
0010
0001
0000
,
1000
0000
1000
0000
,
1000
0010
1000
0000
,
0001
0000
0001
0000
,
1000
1001
0000
0000
,
0010
0000
0100
0000
,
1000
1000
0100
0000
,
0001
0000
0001
0000
,
1000
1000
0001
0000
,
1000
1000
0100
0000
,
0001
0001
1000
0000
,
0010
0010
0010
0000
,
0001
0000
0010
0000
,
1000
0000
0100
0000
,
0001
0001
1000
1000
,
0110
0000
0000
0000
,
0010
0000
1000
0000
,
0010
0000
0001
0000
,
0001
0000
0010
0000
,
1000
0000
0000
0000
,
0001
0001
1000
0000
,
1000
1000
0001
0000
,
0010
0000
0100
0000
,
0001
0000
1000
0000
,
0010
0010
0100
0000
,
0010
0010
0100
0000
,
0001
0000
0001
0000
,
1000
0000
1000
0000
,
0001
0000
0010
0010
,
1000
0000
1001
0000
,
1000
0001
1000
0000
,
0010
0100
0010
0000
,
1001
0000
0000
0000
0000
0000
0000
0110
;

//---------------dance-single - ----------------
#NOTES:
     dance-single:
     :
     Medium:
     2:
     0.204190,0.229139,0.112304,0.000000,0.005105,140.000000,129.000000,11.000000,0.000000,0.000000,0.000000,0.204190,0.229139,0.112304,0.000000,0.005105,140.000000,129.000000,11.000000,0.000000,0.000000,0.000000:
0000
0000
0000
0000
,
0000
0000
0000
0000
,
0000
0000
0000
0000
,
0000
0000
0000
0000
,
0000
0000
0000
0000
,
1000
1000
0000
0010
,
0000
0100
0000
1001
,
0000
1000
0000
0010
,
1000
1000
0100
0000
,
1000
0010
0000
0010
,
0000
0001
0000
1001
,
0000
1000
0001
0010
,
0001
0000
0000
0001
0000
0000
0000
0000
,
0010
0000
1000
0001
,
0001
0000
0100
0001
,
0010
0000
0001
1000
,
1000
0000
0010
0001
,
1000
0000
0100
0010
,
0000
0010
0000
1001
,
0000
1000
0100
0010
,
0001
1000
0100
0000
,
0000
0110
0000
0001
,
0000
0010
0010
1001
,
0000
1000
0001
0001
,
1000
0100
0001
0000
,
0001
1000
0001
0010
,
0010
0000
1000
1001
,
0000
0001
0000
0100
,
0000
0010
0000
0110
,
0000
1000
0010
1000
,
0000
0100
0010
0001
,
0000
1000
0001
1001
,
1001
0000
0000
0000
,
1000
1000
0000
0100
,
0000
0100
1000
0001
,
0010
1000
0000
0010
,
0010
1000
0100
0000
,
1000
0000
0010
0100
,
0001
0001
0100
0000
,
0010
0000
0010
1000
,
0100
0100
0010
0000
,
0001
0000
0010
0010
,
1000
0000
1000
0100
,
1000
0001
0001
0010
,
0001
0000
1000
0100
,
0100
0000
0010
1001
,
0001
0001
1000
0000
,
0010
0001
0010
0000
,
0001
1000
0001
0100
,
1001
0000
0000
0000
0000
0000
0000
0000
1000
0000
0000
1000
0000
0000
0001
0000
;

//---------------dance-single - ----------------
#NOTES:
     dance-single:
     :
     Hard:
     5:
     0.266905,0.280059,0.122514,0.000000,0.015314,183.000000,171.000000,12.000000,0.000000,0.000000,0.000000,0.266905,0.280059,0.122514,0.000000,0.015314,183.000000,171.000000,12.000000,0.000000,0.000000,0.000000:
0000
0000
0000
0000
,
0000
0000
0000
0000
,
0000
0000
0000
0000
,
0000
0000
0000
0000
,
0000
0000
0000
0000
,
0010
0000
1000
0001
,
1000
0010
1000
1001
,
0001
1000
0100
0010
,
0001
0100
0010
0110
,
0010
0000
0100
0001
,
1000
0100
1000
1001
,
0001
0010
0100
0010
,
0001
0000
0000
0000
0000
0000
1000
0000
0000
0000
0001
0000
0000
1000
0000
0000
,
0001
1000
0010
0100
,
0001
0100
0001
1000
,
1000
0001
0010
0100
,
1000
0001
0001
1000
,
0010
1000
1000
0001
,
1000
0010
0100
1001
,
0010
1000
0100
0010
,
0001
0100
0001
0110
,
1000
1001
0001
1000
,
1000
0010
0100
0001
,
0100
1000
0100
0010
,
1000
0001
1000
0100
,
1000
0000
0100
1000
,
0001
0000
0010
0100
,
1000
0001
1000
0010
,
0100
0010
1000
0000
,
0010
1000
0100
1000
,
0010
0100
0001
0010
,
0001
0000
1000
0100
,
1100
0000
0000
0000
,
0010
0010
1000
0001
,
1000
0010
1000
1000
,
0010
0100
0100
0010
,
1000
0100
0001
0100
,
1000
0100
0010
0001
,
1000
1001
0010
1000
,
0001
0100
0010
1000
,
0010
0100
0001
1000
,
0100
0000
0100
0100
0000
0000
0001
0001
,
0000
0000
0010
0010
0000
0000
1000
1000
,
0000
0000
0001
1000
0000
0000
0010
1000
,
0000
0000
0100
0001
0000
0000
1000
0000
,
1001
0010
1000
1001
,
0001
0000
0000
0000
1000
0000
0000
0000
0001
0000
0000
0001
0000
0000
0100
0000
,
0000
0010
0001
0100
,
1000
0010
0100
0010
,
0110
0000
0000
0000
0000
0000
0000
0000
0001
0000
0000
0100
0000
0000
0101
0000
;

//---------------dance-single - ----------------
#NOTES:
     dance-single:
     :
     Challenge:
     7:
     0.390878,0.432819,0.275656,0.000000,0.020419,268.000000,241.000000,27.000000,0.000000,0.000000,0.000000,0.390878,0.432819,0.275656,0.000000,0.020419,268.000000,241.000000,27.000000,0.000000,0.000000,0.000000:
0000
0000
0000
0000
,
0000
0000
0000
0000
,
0000
0000
0000
0000
,
0000
0000
0000
0000
,
0000
0000
0000
1001
,
0100
0000
0001
0000
1000
0010
0100
0000
,
0010
0100
0001
0000
1000
0000
1001
0000
,
0010
0000
1000
0001
0100
0000
0001
0000
,
1000
0001
0010
0110
,
1000
0000
0010
0000
1000
0010
0100
0000
,
0010
0100
0001
0000
0100
0000
0101
0000
,
1000
0000
1000
0001
0100
0000
0010
0000
,
0110
0000
0000
0000
0000
0000
0110
0000
0000
0000
1000
0000
0000
0001
0000
0000
,
1000
0100
1000
0000
0001
0100
0001
0000
,
0010
0001
0100
0010
1000
0000
1001
0000
,
0001
0100
0001
0000
1000
0100
1000
0000
,
1000
0001
0100
0010
0100
0000
1001
0000
,
0100
0000
0010
0000
1000
0010
0100
0000
,
0010
0100
0001
0000
1000
1000
1001
0000
,
0010
0000
0100
0001
1000
0000
0001
0000
,
1000
0000
0001
0000
0010
0010
0110
0000
,
1000
1000
1010
0000
0001
0000
0001
0000
,
0010
0100
0100
0000
1000
1000
1010
0000
,
0010
0000
0100
0001
1000
0100
0010
0000
,
0100
0100
0010
0000
0001
0001
0101
0000
,
1000
0000
0010
1000
0100
0000
1000
0000
,
0001
0100
0001
1000
0010
0000
0100
0000
,
0001
0000
1000
0100
0001
0000
0100
0000
,
0010
0000
0001
0010
1000
0000
0110
0000
,
0001
0000
0100
1000
0100
0000
0001
0000
,
0010
0001
0010
0001
1000
0000
0101
0000
,
1000
0010
0100
0010
1000
0100
0010
0100
,
1000
0000
0000
0000
,
0100
0001
1000
0100
,
0010
0000
0001
0000
1000
0001
1000
0000
,
0010
1000
0001
0001
,
1000
0001
0010
0101
,
0010
1000
0100
0000
0100
0010
0001
0000
,
0001
0100
1000
0000
1000
0100
0001
0000
,
0001
0010
0100
0000
0100
1000
0010
0000
,
0010
0100
0001
0000
0001
1000
0100
0000
,
0100
1100
0010
0011
,
1000
1010
0100
0101
,
1000
0100
1000
0100
0010
0001
0010
0001
,
0100
0010
0100
0010
1000
0001
1000
0001
,
0100
0000
0100
0000
0100
0000
0010
0000
1000
0000
0000
1000
0000
0000
0000
0000
,
0010
0000
0010
0000
0010
0000
1000
0000
0100
0000
0000
0010
0000
0000
0001
0000
,
1000
0000
1100
0000
0001
0100
0001
0000
,
0101
0000
1010
0000
1000
0001
0010
0001
,
0011
0000
0000
0000
0000
0000
0000
0000
1001
0000
0000
0110
0000
0000
1001
0000
;
