#TITLE:Rollercoasting;
#SUBTITLE:;
#ARTIST:From Mario Kart Double Dash;
#TITLETRANSLIT:;
#SUBTITLETRANSLIT:;
#ARTISTTRANSLIT:;
#GENRE:;
#CREDIT:;
#BANNER:Rollercoasting.png;
#BACKGROUND:Rollercoasting-bg.png;
#LYRICSPATH:;
#CDTITLE:;
#MUSIC:Rollercoasting.ogg;
#OFFSET:1.666192;
#SAMPLESTART:13.249999;
#SAMPLELENGTH:15.000000;
#LASTBEATHINT:1.594485;
#SELECTABLE:YES;
#DISPLAYBPM:145.000000;
#BPMS:0.000000=145.000000
;
#STOPS:
;
#BGCHANGES:3.500=Rollercoasting.avi=1.000=1=0=1===CrossFade==,
236.000=Rollercoasting-bg.png=1.000=1=0=1===CrossFade==,
99999=-nosongbg-=1.000=0=0=0 // don't automatically add -songbackground-
;
#KEYSOUNDS:;
#ATTACKS:;

//---------------dance-single - ----------------
#NOTES:
     dance-single:
     :
     Beginner:
     1:
     0.171673,0.299109,0.084330,0.000000,0.000000,114.000000,106.000000,8.000000,0.000000,0.000000,0.000000,0.171673,0.299109,0.084330,0.000000,0.000000,114.000000,106.000000,8.000000,0.000000,0.000000,0.000000:
0000
0000
0000
0000
,
0000
0000
0000
0000
,
0000
0000
0000
0000
,
0000
0000
0000
0000
,
0000
0000
0000
0000
,
0000
0000
0000
0000
,
0000
0000
0000
0000
,
0000
0000
0000
0000
,
0000
0000
0000
0000
,
1001
0000
1000
0000
,
0001
0000
1000
0000
,
1001
0000
0001
0000
,
1000
0000
0001
0000
,
1001
0000
1000
0000
,
0001
0000
1000
0000
,
0001
0001
1000
1000
,
0001
0001
1001
0000
,
1000
1000
0000
0000
,
0001
0000
1000
0000
,
0001
0001
0000
0000
,
1000
0000
0001
0000
,
1000
1000
0000
0000
,
0001
0000
1000
0000
,
0001
0001
1000
0000
,
1000
1000
0001
0000
,
1000
1000
0000
0000
,
0001
0001
0000
0000
,
1000
1000
0000
0000
,
0001
0001
0000
0000
,
1000
0000
0001
0000
,
1000
0000
0001
0000
,
0001
0000
1000
0000
,
0001
0000
1000
0000
,
1000
0001
0000
0000
,
0001
1000
0000
0000
,
1000
0001
0000
0000
,
0001
1000
0000
0000
,
0001
1000
0000
0000
,
0001
1000
0000
0000
,
1000
0001
0000
0000
,
1000
0001
0000
0000
,
1001
0000
1000
0000
,
0001
0000
1000
0000
,
1001
0000
0001
0000
,
1000
0000
0001
0000
,
1001
0000
0001
0000
,
1000
0000
0001
0000
,
1000
1000
0001
0001
,
1000
1000
0001
0001
,
1001
0000
0000
0000
,
0001
0000
1000
0000
,
0001
0001
0000
0000
,
1000
0000
0001
0000
,
1000
1000
0000
0000
,
0001
0000
1000
0000
,
1000
0000
0001
0000
,
1000
0001
1000
0001
;

//---------------dance-single - ----------------
#NOTES:
     dance-single:
     :
     Easy:
     2:
     0.191249,0.209376,0.031624,0.000000,0.000000,127.000000,124.000000,3.000000,0.000000,0.000000,0.000000,0.191249,0.209376,0.031624,0.000000,0.000000,127.000000,124.000000,3.000000,0.000000,0.000000,0.000000:
0000
0000
0000
0000
,
0000
0000
0000
0000
,
0000
0000
0000
0000
,
0000
0000
0000
0000
,
0000
0000
0000
0000
,
0000
0000
0000
0000
,
0000
0000
0000
0000
,
0000
0000
0000
0000
,
0000
0000
0000
0000
,
0001
0000
0000
1000
,
1000
0000
0000
0010
,
0010
0000
1000
1000
,
1000
0000
0001
0000
,
1000
0000
0000
0001
,
0001
0000
0000
1000
,
1000
0000
0010
0000
,
0001
0000
1000
0000
,
0001
0001
0000
1000
,
1000
1000
0000
0010
,
0010
0000
0001
0000
,
1001
0000
0000
0000
,
1000
0010
0000
0001
,
0001
0010
0000
0001
,
0001
0000
0100
0000
,
0110
0000
0000
0000
,
1000
0000
0001
0010
,
0010
0000
0001
0100
,
0001
0000
0001
0001
,
0010
0000
0001
0010
,
0001
0000
1000
0010
,
0010
0000
1000
0010
,
1000
0000
1000
1000
,
0010
0000
0001
0010
,
0001
0000
0001
0010
,
0010
0000
1000
0100
,
1000
0000
0001
0001
,
0010
0000
1000
0010
,
1000
0000
1000
0010
,
0010
0000
0001
0010
,
0001
0000
1000
1000
,
0010
0000
0001
0010
,
0001
0000
0000
1000
,
1000
0000
0000
0010
,
0010
0000
0001
0001
,
0001
0000
0010
0000
,
1000
0000
0000
0001
,
0001
0000
0000
0010
,
0010
0000
1000
0000
,
0010
0000
0100
0000
,
0001
0001
0001
0000
,
1000
0010
1000
0000
,
1000
1000
1000
0000
,
1000
0100
1000
0000
,
0001
0001
0001
0000
,
0001
0010
0001
0000
,
1000
0000
1001
0000
,
1000
0010
0010
1000
;

//---------------dance-single - ----------------
#NOTES:
     dance-single:
     :
     Medium:
     3:
     0.219861,0.269198,0.105413,0.000000,0.000000,146.000000,136.000000,10.000000,0.000000,0.000000,0.000000,0.219861,0.269198,0.105413,0.000000,0.000000,146.000000,136.000000,10.000000,0.000000,0.000000,0.000000:
0000
0000
0000
0000
,
0000
0000
0000
0000
,
0000
0000
0000
0000
,
0000
0000
0000
0000
,
0000
0000
0000
0000
,
0000
0000
0000
0000
,
0000
0000
0000
0000
,
0000
0000
0000
0000
,
0000
0000
0000
0000
,
0010
0000
0001
0000
,
0100
0000
1000
0000
,
1000
0000
0010
0010
,
0010
1000
0001
0000
,
0010
0000
1000
0000
,
0100
0000
0001
0000
,
1000
0000
0100
0000
,
0001
0000
0110
0000
,
1000
0100
1000
0000
,
0010
0001
0100
0000
,
0010
0000
0100
0000
,
0001
0000
1000
0001
,
0001
0100
0001
0000
,
0010
1000
0100
0000
,
1000
1000
0001
0000
,
0001
0001
0001
1000
,
0001
0000
0010
0100
,
0010
0010
1000
0000
,
0001
0000
0001
0100
,
0100
1000
0001
0000
,
1000
0000
0010
0100
,
0100
0001
1000
0000
,
1000
0000
1000
0100
,
0100
1000
0001
0000
,
1001
0000
0010
0100
,
0010
0100
1000
0000
,
1001
0000
0001
0100
,
0001
1000
0001
0000
,
1001
0000
0010
0100
,
1000
0001
1000
0000
,
1001
0000
1000
0100
,
0001
1000
0001
0000
,
0010
0000
0001
0000
,
0100
0000
1000
0000
,
0010
0010
0100
0000
,
0001
0000
1000
0010
,
0010
0000
1000
0000
,
0100
0000
0001
0000
,
1000
0010
0001
0000
,
0001
0001
1000
1000
,
0010
0000
1000
0001
,
1000
1000
1001
0000
,
0010
0000
0001
1000
,
0100
1000
1001
0000
,
0010
0000
1000
0001
,
0001
0001
1001
0000
,
0100
0000
1000
0001
,
1000
0001
1001
1001
;

//---------------dance-single - ----------------
#NOTES:
     dance-single:
     :
     Hard:
     4:
     0.277085,0.388842,0.105413,0.000000,0.000000,184.000000,174.000000,10.000000,0.000000,0.000000,0.000000,0.277085,0.388842,0.105413,0.000000,0.000000,184.000000,174.000000,10.000000,0.000000,0.000000,0.000000:
0000
0000
0000
0000
,
0000
0000
0000
0000
,
0000
0000
0000
0000
,
0000
0000
0000
0000
,
0000
0000
0000
0000
,
0000
0000
0000
0000
,
0000
0000
0000
0000
,
0000
0000
0000
0000
,
0000
0000
0000
0000
,
0100
1000
1000
0001
,
1000
0010
1000
0001
,
0100
0001
0100
0010
,
1000
1000
1001
0001
,
0100
0001
0001
1000
,
0001
0010
0001
1000
,
0010
0010
0100
0010
,
1000
0001
0100
0000
,
0100
1000
0000
0001
,
1000
0010
0000
0001
,
0010
0100
0000
1001
,
1000
0000
0001
0000
0000
0100
0000
0100
,
0100
0001
0000
1000
,
0001
0010
0000
1000
,
0001
0001
0000
0110
,
1000
0000
0100
0000
0000
0010
0000
0010
,
0010
0001
1000
0100
,
1000
0010
0100
0001
,
0010
0001
1000
0001
,
1000
1000
0001
0010
,
0010
1000
0001
0100
,
0001
0001
1000
0010
,
0010
1000
0001
1000
,
1000
1000
0001
0010
,
0010
0000
0001
1000
0000
0000
0000
0000
,
1000
0010
0100
0000
,
0100
0000
0001
1000
0000
0000
0000
0000
,
1000
1000
0001
0000
,
0010
0000
1000
0001
0000
0000
0000
0000
,
0001
0001
1000
0000
,
0100
0000
1000
0001
0000
0000
0000
0000
,
1000
1000
0001
0000
,
0100
1000
1000
0001
,
1000
0010
1000
0001
,
0010
0100
0010
1001
,
1000
0001
0100
0100
,
0100
0001
0001
1000
,
0001
0010
0001
1000
,
0001
0001
0001
0110
,
1000
0100
0010
0010
,
0100
0010
0000
1000
,
1000
0010
1000
0110
,
0100
0010
0000
0001
,
1000
0000
0010
0000
0000
1000
0000
0100
,
0100
0010
0000
1000
,
0001
0010
0001
0110
,
0100
0010
0001
1000
,
1001
0010
1001
0110
;

//---------------dance-single - ----------------
#NOTES:
     dance-single:
     :
     Challenge:
     7:
     0.409605,0.419675,0.305698,0.000000,0.000000,272.000000,243.000000,29.000000,0.000000,0.000000,0.000000,0.409605,0.419675,0.305698,0.000000,0.000000,272.000000,243.000000,29.000000,0.000000,0.000000,0.000000:
0000
0000
0000
0000
,
0000
0000
0000
0000
,
0000
0000
0000
0000
,
0000
0000
0000
0000
,
0000
0000
0000
0000
,
0000
0000
0000
0000
,
0000
0000
0000
0000
,
0000
0000
0000
0000
,
0000
0000
0000
0000
,
1001
0000
0010
0000
0010
1000
0100
0000
,
1100
0000
0100
0000
0010
0001
0100
0000
,
0101
0000
0001
0000
1000
0001
0010
0000
,
0011
1000
1010
0001
,
1001
0000
0010
0000
0010
0001
0100
0000
,
0101
0000
0100
0000
0010
1000
0100
0000
,
1100
0001
0101
1000
,
1001
0010
0110
0100
,
1000
0000
0010
1000
0000
1000
0100
0000
,
1000
0000
0100
0010
0000
0001
0100
0000
,
0010
0000
1000
0010
0000
0010
1000
0000
,
0001
0000
1000
0010
0000
1000
0001
1000
,
0001
0000
0010
0001
0000
0001
0100
0000
,
0001
0000
0100
0010
0000
1000
0100
0000
,
1000
0000
0001
0100
0000
0010
1000
0000
,
0100
0000
1000
0001
0000
0010
0001
0010
,
0100
0000
1000
0010
1000
0001
0100
0000
,
0010
0000
1000
0000
0000
1000
0100
0000
,
0100
0000
1000
0001
1000
0001
0100
0001
,
0001
0010
0100
1001
,
0100
0000
0001
0010
0001
1000
0100
0000
,
1000
0010
0100
1001
,
0100
0000
0001
1000
0001
1000
0100
1000
,
0001
0010
0100
1001
,
0100
0000
0000
1010
0000
0001
0100
0000
,
0010
0000
1000
0000
0000
0001
0100
0000
,
0100
0000
0000
1001
0000
0010
0100
0000
,
0001
1000
0100
1000
,
0100
0000
0000
0011
0000
1000
0100
0000
,
1000
0001
0100
0001
,
0100
0000
0000
1001
0000
0010
0100
0000
,
0001
1000
0100
1000
,
1001
0000
0010
0000
0010
1000
0100
0000
,
1100
0000
0100
0000
0010
0001
0100
0000
,
1010
0000
1000
0000
0010
0010
1000
0000
,
0101
1000
1010
0001
,
1001
0000
0010
0000
0010
0001
0100
0000
,
0101
0000
0100
0000
0010
1000
0100
0000
,
1010
0001
0110
1000
,
0101
1000
0011
0001
,
1000
0100
1000
0000
0001
0100
0001
0000
,
0001
0010
0100
1000
0010
0100
0001
0000
,
0001
0100
0001
0000
1000
0100
1000
0000
,
0010
1000
0001
0100
0010
1000
0100
0000
,
1000
0100
1000
0000
0001
0100
0001
0000
,
1000
0010
0100
0001
0010
0100
1000
0000
,
1000
0100
0001
0000
0001
0100
1000
0000
,
0010
1000
0001
0100
0001
1000
0010
0100
;
