#TITLE:Rendezvous on Ice;
#SUBTITLE:;
#ARTIST:From Les Patineurs;
#TITLETRANSLIT:;
#SUBTITLETRANSLIT:;
#ARTISTTRANSLIT:;
#GENRE:;
#CREDIT:;
#BANNER:Rendezvous on Ice.png;
#BACKGROUND:Rendezvous on Ice-bg.png;
#LYRICSPATH:;
#CDTITLE:;
#MUSIC:Rendezvous on Ice.ogg;
#OFFSET:1.949989;
#SAMPLESTART:15.499999;
#SAMPLELENGTH:15.000000;
#LASTBEATHINT:1.950073;
#SELECTABLE:YES;
#DISPLAYBPM:124.000000;
#BPMS:0.000000=124.000000
;
#STOPS:
;
#BGCHANGES:3.500=Rendezvous on Ice.avi=1.000=1=0=1===CrossFade==,
203.000=Rendezvous on Ice-bg.png=1.000=1=0=1===CrossFade==,
99999=-nosongbg-=1.000=0=0=0 // don't automatically add -songbackground-
;
#KEYSOUNDS:;
#ATTACKS:;

//---------------dance-single - ----------------
#NOTES:
     dance-single:
     :
     Beginner:
     1:
     0.175092,0.309053,0.073961,0.000000,0.000000,116.000000,109.000000,7.000000,0.000000,0.000000,0.000000,0.175092,0.309053,0.073961,0.000000,0.000000,116.000000,109.000000,7.000000,0.000000,0.000000,0.000000:
0000
0000
0000
0000
,
0000
0000
0000
0000
,
0000
0000
0000
0000
,
0000
0000
0000
0000
,
0000
0000
0000
0000
,
0000
0000
0000
0000
,
0000
0000
0000
0000
,
0000
0000
0000
0000
,
0000
0000
0000
0000
,
0001
0000
1000
0000
,
1000
0000
0001
0000
,
1000
0000
0001
0000
,
0001
0000
1000
0000
,
1000
0000
1000
0000
,
0001
0000
0001
0000
,
1000
0000
0001
0000
,
1001
0000
0000
0000
,
0001
1000
0001
1000
,
0001
0001
0001
0000
,
1000
0001
1000
0001
,
1000
1000
1000
0000
,
0001
1000
0001
1000
,
0001
0001
0001
0000
,
1000
0001
1000
0001
,
1000
0001
1000
0001
,
1001
1000
0001
1000
,
0001
0001
1000
0000
,
0001
1000
0001
1000
,
0001
0001
1000
0000
,
0001
1000
0001
1000
,
1000
0001
1000
0001
,
1000
1000
0001
0001
,
1001
1001
1001
0000
,
0001
0000
1000
0000
,
1000
0000
0001
0000
,
1000
0000
0001
0000
,
0001
0000
1000
0000
,
1000
0000
1000
0000
,
0001
0000
0001
0000
,
1000
0000
0001
0000
,
1001
0000
1000
1000
,
1000
0000
1000
0000
,
0001
0000
1000
0000
,
1000
0000
0001
0000
,
1000
0000
0001
0001
,
0001
0000
1000
0000
,
0001
0000
0001
0000
,
1000
0000
0001
0000
,
1000
0001
1000
1001
;

//---------------dance-single - ----------------
#NOTES:
     dance-single:
     :
     Easy:
     1:
     0.194715,0.257544,0.052830,0.000000,0.000000,129.000000,124.000000,5.000000,0.000000,0.000000,0.000000,0.194715,0.257544,0.052830,0.000000,0.000000,129.000000,124.000000,5.000000,0.000000,0.000000,0.000000:
0000
0000
0000
0000
,
0000
0000
0000
0000
,
0000
0000
0000
0000
,
0000
0000
0000
0000
,
0000
0000
0000
0000
,
0000
0000
0000
0000
,
0000
0000
0000
0000
,
0000
0000
0000
0000
,
0010
0001
0100
1000
,
0010
0000
0010
0001
,
1000
0000
1000
0100
,
0001
0000
0001
0010
,
0100
0000
0100
1000
,
0001
0000
0010
0000
,
0100
0000
1000
0000
,
0010
1000
0001
0100
,
0010
0000
0000
0000
,
1000
0001
1000
1000
,
0010
0000
0001
0000
,
0010
0010
1000
0001
,
1000
0000
0100
0000
,
0001
1000
0001
0001
,
0100
0000
0010
0000
,
0100
1000
0001
0010
,
0010
0000
0010
0100
,
0100
0001
1000
1000
,
0010
0000
0001
0001
,
1000
0010
1000
0001
,
1000
0000
0100
0100
,
0001
0000
1001
1000
,
0010
0000
0110
0010
,
1000
0010
0001
0010
,
1000
0001
0100
0000
,
0010
0000
0010
0000
,
1000
0000
1000
0000
,
0001
0000
0001
0000
,
0100
0000
0100
0000
,
0001
0000
0010
0010
,
0100
0001
1000
0000
,
0010
0000
0001
0100
,
0001
1001
1000
1001
,
0010
0000
0010
1000
,
1000
0000
1000
0001
,
0001
0000
0001
0100
,
0100
0000
0100
0001
,
0001
0010
0100
1000
,
0100
0000
1000
0100
,
0010
0000
0001
1000
,
0010
0001
0010
1001
;

//---------------dance-single - ----------------
#NOTES:
     dance-single:
     :
     Medium:
     4:
     0.292827,0.386316,0.211318,0.000000,0.031698,194.000000,174.000000,20.000000,0.000000,0.000000,0.000000,0.292827,0.386316,0.211318,0.000000,0.031698,194.000000,174.000000,20.000000,0.000000,0.000000,0.000000:
0000
0000
0000
0000
,
0000
0000
0000
0000
,
0000
0000
0000
0000
,
0000
0000
0000
0000
,
0000
0000
0000
0000
,
0001
0001
0100
1000
,
0100
0001
0001
1000
,
0010
0100
0010
0010
,
1000
0001
1000
0110
,
1000
0100
0001
0100
,
1000
0010
0100
0001
,
0010
0010
0001
1000
,
0100
1000
0001
0100
,
0001
1001
0100
1000
,
0100
1001
0001
1000
,
0010
0110
0010
0110
,
1001
0000
0000
0000
,
1000
0010
1000
0001
,
0100
0001
1000
0001
,
0010
0100
1000
0001
,
1000
0001
0010
0010
,
0001
0010
0001
1000
,
0100
1000
0100
0001
,
0100
0010
0001
1000
,
0010
1000
0100
1000
,
1000
0010
1000
1000
,
0001
0001
1000
0001
,
0010
0100
1000
0100
,
0010
0001
0010
0010
,
0100
1000
0010
1000
,
0001
0100
0010
1000
,
0001
0000
0001
0000
0001
0000
1000
0000
1000
0000
1000
0000
,
0100
0000
0100
0000
0100
0000
1001
0000
0000
0000
0000
0000
,
1000
0000
0001
0100
,
1000
0000
0100
0001
,
0010
0000
0001
1000
,
0100
0000
0001
0100
,
0001
1001
0100
1001
,
0100
1001
0001
1001
,
0010
0110
0110
0110
,
1001
0010
0100
0110
,
0001
0100
1000
0100
,
1000
0010
0100
1001
,
0010
1000
0001
1000
,
0100
1000
0001
0110
,
0001
0000
1000
0000
0100
0100
0100
0000
,
0100
0000
1000
0000
0001
0001
0001
0000
,
0010
0000
0100
0000
0010
0010
0010
0000
,
1000
0001
1001
0110
;

//---------------dance-single - ----------------
#NOTES:
     dance-single:
     :
     Hard:
     6:
     0.374335,0.413127,0.200752,0.000000,0.327543,248.000000,229.000000,19.000000,0.000000,0.000000,0.000000,0.374335,0.413127,0.200752,0.000000,0.327543,248.000000,229.000000,19.000000,0.000000,0.000000,0.000000:
0000
0000
0000
0000
,
0000
0000
0000
0000
,
0000
0000
0000
0000
,
0000
0000
0000
0000
,
0000
0000
0000
0000
,
1000
0000
1000
0000
0001
0100
0001
0000
,
0010
0000
0010
0000
1000
0100
1000
0000
,
0010
0001
0100
0000
0010
1000
0100
0000
,
0011
1010
1100
0101
,
1000
0100
0001
0100
,
1000
1000
0010
0000
1000
1000
0100
0000
,
0001
0100
1000
0100
,
0001
0001
0010
0000
0001
0001
0100
0000
,
1001
0000
0010
0000
0001
1000
0001
0000
,
0110
0000
1000
0000
0001
0100
0001
0000
,
1001
0000
0110
0000
0001
1000
0001
0000
,
1100
0000
0000
0000
,
1000
0000
0001
0000
1000
0000
0001
0000
1000
0000
0001
0000
,
0100
0000
0010
0000
0010
0000
1000
0000
0100
0000
0100
0000
,
0001
0000
1000
0000
0001
0000
1000
0000
0001
0000
1000
0000
,
0100
0000
0010
0000
0010
0000
0001
0000
0100
0000
0100
0000
,
1000
0000
0010
0000
1000
0000
0010
0000
1000
0000
0010
0000
,
0001
0000
1000
0000
1000
0000
0001
0000
1000
0000
1000
0000
,
0001
0000
0010
0000
0001
0000
1000
0000
0001
0000
0010
0000
,
0100
0000
1000
0000
0100
0000
0010
0000
0100
0000
1000
0000
,
0001
0000
0100
0000
1000
0000
0100
0000
0001
0000
0100
0000
,
1000
0000
0100
0000
0100
0000
0001
0000
0010
0000
0010
0000
,
1000
0000
0100
0000
0001
0000
0100
0000
1000
0000
0100
0000
,
0001
0000
0100
0000
0100
0000
1000
0000
0010
0000
0010
0000
,
0001
0000
0100
0000
0010
0000
1000
0000
0100
0000
0010
0000
,
0001
0000
1000
0000
0100
0000
0010
0000
0001
0000
0100
0000
,
1000
0000
0100
0000
0001
0000
1000
0000
0100
0000
0001
0000
,
0100
0000
1000
0000
0001
0000
0110
0000
0000
0000
0000
0000
,
1000
0100
0001
0100
,
1000
0100
0001
0100
,
1000
0010
0001
0010
,
1000
0010
0001
0010
,
1000
0000
1000
0000
0001
0100
0001
0000
,
0010
0000
0010
0000
1000
0100
1000
0000
,
0010
0001
0100
0000
0010
1000
0100
0000
,
0011
1010
1100
0101
,
1000
0100
0001
0100
,
1000
1000
0010
0000
1000
1000
0100
0000
,
0001
0100
1000
0100
,
0001
0001
0010
0000
0001
0001
0100
0000
,
1001
0000
0010
0000
0001
1000
0001
0000
,
0110
0000
1000
0000
0001
0100
0001
0000
,
1001
0000
0110
0000
0001
1000
0001
0000
,
1000
1000
0001
0001
0010
0100
1000
1001
;

//---------------dance-single - ----------------
#NOTES:
     dance-single:
     :
     Challenge:
     8:
     0.458862,0.645511,0.517730,0.000000,0.369807,304.000000,255.000000,49.000000,0.000000,0.000000,0.000000,0.458862,0.645511,0.517730,0.000000,0.369807,304.000000,255.000000,49.000000,0.000000,0.000000,0.000000:
0000
0000
0000
0000
,
0000
0000
0000
0000
,
0000
0000
0000
0000
,
0000
0000
0000
0000
,
0000
0000
0000
0000
,
1000
0001
1000
0100
,
0100
1000
0001
0010
,
1100
0100
0101
0100
,
0010
0010
1000
0100
1000
0001
0100
0001
,
1000
0000
1001
0000
1000
0100
0001
0000
,
0100
0000
0110
0000
0001
0100
1000
0000
,
0101
0000
1001
0000
0010
0001
0100
0000
,
1001
0000
1100
0000
0100
1000
0001
0000
,
1000
0001
0001
0000
1000
0010
0100
0000
,
0100
0001
1000
0000
0001
1000
0010
0000
,
1000
0001
0100
0010
0100
0001
0100
0010
,
1000
0000
0000
0000
,
1000
0000
1000
0000
1000
0000
0001
0000
0001
0000
0001
0000
,
1000
0000
0001
0000
1001
0000
0001
0000
1000
0000
1001
0000
,
0010
0000
0010
0000
0010
0000
0100
0000
0100
0000
0100
0000
,
0001
0000
1001
0000
1001
0000
1000
0000
1001
0000
1001
0000
,
0001
0000
0001
0000
0001
0000
1000
0000
1000
0000
1000
0000
,
1001
0000
0101
0000
0101
0000
1001
0000
1100
0000
1100
0000
,
1000
0000
0001
0000
0100
0000
0001
0000
1000
0000
0100
0000
,
0010
0000
0001
0000
0100
0000
0010
0000
1000
0000
0100
0000
,
1000
0000
0010
0000
1000
0000
0001
0000
0100
0000
0001
0000
,
1000
0000
0101
0000
1001
0000
0001
0000
1100
0000
1001
0000
,
0010
0000
1000
0000
0010
0000
0100
0000
0001
0000
0100
0000
,
0001
0000
1010
0000
1001
0000
1000
0000
0011
0000
1001
0000
,
1000
0001
1000
0001
1000
0001
0100
0010
0100
0010
0100
0010
,
1000
0010
1000
0010
1000
0010
0100
0001
0100
0001
0100
0001
,
1000
0000
1001
0000
0011
0000
1001
0000
1100
0000
1001
0000
,
0010
0000
0100
0000
0110
0000
1001
0000
0000
0000
0000
0000
,
1000
1001
1000
0001
,
0100
0110
0001
1000
,
0100
1001
0010
0100
,
1000
1001
0100
0001
,
1000
0000
0001
0000
1000
1000
0100
0000
,
0100
0000
1000
0000
0001
0001
0010
0000
,
1001
0100
1001
0100
,
0101
1100
1010
0011
,
1000
0000
1001
0000
1000
0100
0001
0100
,
1000
0000
0110
0000
0001
0100
1000
0100
,
0001
0000
0101
0000
0010
0001
0100
0001
,
1000
0000
1100
0000
0100
1000
0001
0010
,
0001
0001
0001
0000
1000
0010
0100
0001
,
1000
1000
1000
0000
0001
1000
0010
0100
,
0001
1000
0100
0010
0100
0001
0100
1000
,
0100
0100
1000
0100
1000
0001
0100
0001
;
