#TITLE:Piroli;
#SUBTITLE:;
#ARTIST:From the Famicom Disk System;
#TITLETRANSLIT:;
#SUBTITLETRANSLIT:;
#ARTISTTRANSLIT:;
#GENRE:;
#CREDIT:;
#BANNER:Piroli.png;
#BACKGROUND:Piroli-bg.png;
#LYRICSPATH:;
#CDTITLE:;
#MUSIC:Piroli.ogg;
#OFFSET:1.353752;
#SAMPLESTART:30.679996;
#SAMPLELENGTH:15.000000;
#LASTBEATHINT:0.769952;
#SELECTABLE:YES;
#DISPLAYBPM:133.000000;
#BPMS:0.000000=133.000000
;
#STOPS:
;
#BGCHANGES:2.500=Piroli.avi=1.000=1=0=1===CrossFade==,
215.000=Piroli-bg.png=1.000=1=0=1===CrossFade==,
99999=-nosongbg-=1.000=0=0=0 // don't automatically add -songbackground-
;
#KEYSOUNDS:;
#ATTACKS:;

//---------------dance-single - ----------------
#NOTES:
     dance-single:
     :
     Beginner:
     1:
     0.087137,0.157827,0.000000,0.000000,0.000000,60.000000,60.000000,0.000000,0.000000,0.000000,0.000000,0.087137,0.157827,0.000000,0.000000,0.000000,60.000000,60.000000,0.000000,0.000000,0.000000,0.000000:
0000
0000
0000
0000
,
0000
0000
0000
0000
,
0000
0000
0000
0000
,
0000
0000
0000
0000
,
0000
0000
0000
0000
,
0000
0000
0000
1000
,
0000
0000
0000
0001
,
0000
0000
0000
0001
,
0000
0000
0000
1000
,
0000
0000
0000
1000
,
1000
0000
0000
0000
,
0000
0000
0000
0001
,
0001
0000
0000
0000
,
0000
0000
0000
1000
,
1000
0000
0000
0000
,
0000
0000
0000
1000
,
0000
0001
0000
1000
,
0000
0000
0000
0001
,
0000
0000
0000
1000
,
0000
0000
0000
0001
,
0000
0001
0000
0001
,
0000
0000
0000
1000
,
0000
0000
0000
0001
,
0000
0000
0000
1000
,
0000
1000
0000
1000
,
0000
0001
0000
0001
,
0000
0000
0000
1000
,
0000
0000
0000
0001
,
0001
0000
0000
0000
,
0000
0000
0000
1000
,
1000
0000
0000
0000
,
0000
0000
0000
0001
,
0001
0000
0000
0000
,
0000
0000
0000
0001
,
0000
1000
0000
0001
,
0000
0000
0000
1000
,
0000
0000
0000
0001
,
0000
0000
0000
1000
,
0000
1000
0000
1000
,
0000
0000
0000
0001
,
0000
0000
0000
1000
,
0000
0000
0000
0001
,
0000
0001
0000
0001
,
0000
0000
1000
1000
,
0000
0000
0000
0001
,
0000
0000
0000
1000
,
0000
1000
0000
0001
,
0000
1000
0000
1000
,
0000
0000
0000
0001
,
0000
0000
0000
1000
,
0000
0001
0000
1000
,
1000
1000
0000
0001
;

//---------------dance-single - ----------------
#NOTES:
     dance-single:
     :
     Easy:
     1:
     0.106017,0.157827,0.010166,0.000000,0.000000,73.000000,72.000000,1.000000,0.000000,0.000000,0.000000,0.106017,0.157827,0.010166,0.000000,0.000000,73.000000,72.000000,1.000000,0.000000,0.000000,0.000000:
0000
0000
0000
0000
,
0000
0000
0000
0000
,
0000
0000
0000
0000
,
0000
0000
0000
0000
,
0000
0000
0000
0000
,
0000
0000
0000
0001
,
0000
0000
0000
0010
,
0000
0000
0000
1000
,
0000
0000
0000
0100
,
0000
0000
0000
0001
,
0000
0000
0000
0001
,
0000
0001
0000
1000
,
0000
0000
0000
1000
,
0000
1000
0000
0001
,
0000
0000
0000
0001
,
0000
0001
0000
0010
,
0000
0000
0000
0001
,
0000
1000
0000
0010
,
0000
0000
0000
0100
,
0000
0000
0000
0001
,
0000
0001
0000
1000
,
0000
1000
1000
0100
,
0000
0000
0000
0010
,
0000
0000
0000
1000
,
0000
0001
0000
0001
,
0000
1000
1000
1000
,
0000
0000
0000
0100
,
0000
0000
0000
1000
,
0000
0000
0000
1000
,
0000
1000
0000
0001
,
0000
0000
0000
0001
,
0000
0001
0000
1000
,
0000
0000
0000
1000
,
0000
1000
0000
0010
,
0000
0000
0000
1000
,
0000
0001
0000
0010
,
0000
0000
0000
0100
,
0000
0000
0000
1000
,
0000
1000
0000
0001
,
0000
0001
0001
0100
,
0000
0000
0000
0010
,
0000
0000
0000
0001
,
0000
1000
0000
1001
,
0000
0000
0000
0100
,
0000
0000
0000
0010
,
0000
0000
0000
1000
,
0000
0001
0000
1000
,
0000
0001
0001
0010
,
0000
0000
0000
0100
,
0000
1000
0000
0001
,
0000
0010
0000
0001
,
0000
1000
0010
1000
;

//---------------dance-single - ----------------
#NOTES:
     dance-single:
     :
     Medium:
     2:
     0.216391,0.263046,0.071162,0.000000,0.000000,149.000000,142.000000,7.000000,0.000000,0.000000,0.000000,0.216391,0.263046,0.071162,0.000000,0.000000,149.000000,142.000000,7.000000,0.000000,0.000000,0.000000:
0000
0000
0000
0000
,
0000
0000
0000
0000
,
0000
0000
0000
0000
,
0000
0000
0000
0000
,
0000
0000
0000
0000
,
0000
0000
0000
0010
,
0001
0000
1000
1000
,
0010
0000
0001
0010
,
0010
0000
1000
1000
,
0100
0000
0001
0010
,
0000
1000
1000
0010
,
0000
0100
1000
0010
,
0000
0001
0001
0010
,
0000
0100
0001
0010
,
0000
1000
1000
0010
,
0000
0100
1000
0010
,
0000
0001
1000
0100
,
0000
0100
1000
0001
,
0001
0010
0000
0010
,
0100
1000
0000
1000
,
1000
0001
0010
0010
,
0000
1001
0000
1000
,
0001
0010
0000
0010
,
0001
1000
0000
0001
,
1000
0001
0100
0100
,
0000
1001
0010
0010
,
0001
0000
1000
0001
,
0100
0000
1000
0010
,
0000
1000
1000
0010
,
0000
0100
1000
0010
,
0000
0001
0001
0010
,
0000
0100
0001
0010
,
0000
1000
1000
0010
,
0000
0100
1000
0010
,
0000
1000
0001
0100
,
0000
0100
0001
1000
,
1000
0010
0000
0010
,
0100
0001
0000
0001
,
0001
1000
0010
0010
,
0000
1001
0000
0001
,
1000
0010
0000
0010
,
1000
0001
0000
1000
,
0001
1000
0100
0010
,
0000
0000
0110
1000
,
0001
0010
0000
0010
,
0001
1000
0000
0001
,
1000
0001
0100
0100
,
0000
1001
0010
1000
,
0100
0010
0000
0010
,
0001
0100
0000
0010
,
1000
0001
0100
0010
,
0000
1001
1000
1001
;

//---------------dance-single - ----------------
#NOTES:
     dance-single:
     :
     Hard:
     4:
     0.257055,0.315655,0.101660,0.000000,0.000000,177.000000,167.000000,10.000000,0.000000,0.000000,0.000000,0.257055,0.315655,0.101660,0.000000,0.000000,177.000000,167.000000,10.000000,0.000000,0.000000,0.000000:
0000
0000
0000
0000
,
0000
0000
0000
0000
,
0000
0000
0000
0000
,
0000
0000
0000
0000
,
0000
0000
0000
0000
,
0000
0000
0000
1000
,
0010
0010
1000
0001
,
1000
0100
0000
1000
,
1000
0010
1000
0001
,
0010
0100
0000
0010
,
0001
0000
1000
0010
,
0100
0001
1000
0010
,
1000
0000
0001
0010
,
0100
1000
0001
0010
,
0001
0000
1000
0010
,
0100
0001
1000
0001
,
1001
0000
1000
0001
,
0100
0001
1001
0010
,
0000
0001
1000
0100
,
0000
1000
0010
0100
,
0001
0100
0001
1000
,
1000
0000
0001
0001
0001
0000
0100
0000
,
0000
0001
1000
0010
,
0000
1000
0010
0100
,
0001
0010
0001
1000
,
1001
0000
0001
0001
0001
0000
0001
0000
,
0010
0010
0001
1000
,
0010
0100
0000
0010
,
0001
0000
1000
0010
,
0100
0001
1000
0010
,
1000
0000
0001
0010
,
0100
1000
0001
0010
,
0001
0000
1000
0010
,
0100
0001
1000
1000
,
1001
0000
0001
1000
,
0100
1000
1001
0010
,
0000
1000
0001
0100
,
0000
0001
0010
0100
,
1000
0100
1000
0001
,
0001
0000
1000
1000
1000
0000
0100
0000
,
0000
1000
0001
0010
,
0000
0001
0010
0100
,
1000
0010
1000
0110
,
0000
0000
1001
0100
,
0000
0001
1000
0010
,
0000
1000
0010
0100
,
0001
0010
0001
0001
,
1001
0000
1000
1000
1000
0000
0100
0000
,
0010
0001
1000
0010
,
0100
0100
0010
0100
,
0001
0010
0100
1000
,
1001
0000
0001
1000
0001
0000
0110
0000
;

//---------------dance-single - ----------------
#NOTES:
     dance-single:
     :
     Challenge:
     7:
     0.397927,0.447177,0.223652,0.000000,0.025415,274.000000,252.000000,22.000000,0.000000,0.000000,0.000000,0.397927,0.447177,0.223652,0.000000,0.025415,274.000000,252.000000,22.000000,0.000000,0.000000,0.000000:
0000
0000
0000
0000
,
0000
0000
0000
0000
,
0000
0000
0000
0000
,
0000
0000
0000
0000
,
0000
0000
0000
0000
,
0000
0000
0000
0000
0000
0000
0100
1000
,
0100
1000
0000
0000
0000
0000
0001
0010
,
0001
0100
0000
0000
0000
0000
0010
1000
,
0100
1000
0000
0000
0000
0000
0001
0100
,
0001
1000
0000
0000
0000
0000
1000
0000
,
0010
0100
0001
0000
1000
0000
0100
0000
,
0010
0010
0001
0000
1000
0000
0001
0000
,
0010
0100
1000
0000
0001
0000
0100
0000
,
0010
0010
1000
0000
0001
0000
1000
0000
,
0010
0100
0001
0000
1000
0000
0100
0000
,
0010
0010
0001
0000
1000
0000
1000
0000
,
0001
0100
0001
0000
1000
0000
0100
0000
,
0010
0001
0010
0000
0100
0000
1000
0100
,
0010
0100
0010
0000
0110
0000
0001
1000
,
0001
1000
0100
0000
1100
0000
0001
0010
,
0100
1000
0001
0010
0100
1000
0100
0000
,
1000
0000
0000
0001
0000
0000
0010
0000
0011
0000
0000
0000
1000
0000
0010
0000
,
0010
0100
0100
0000
0110
0000
0001
0001
,
1000
1000
0100
0000
1100
0000
0001
0010
,
0001
1000
0001
1000
0100
1000
0100
0000
,
0011
0000
0000
0001
0000
0000
0010
0000
0011
0000
0000
0000
0100
0000
0001
0000
,
0100
0001
0000
0000
0000
0000
1000
0010
,
1000
0100
0000
0000
0000
0000
1000
0000
,
0010
0100
0001
0000
1000
0000
0100
0000
,
0010
0010
0001
0000
1000
0000
0001
0000
,
0010
0100
1000
0000
0001
0000
0100
0000
,
0010
0010
1000
0000
0001
0000
1000
0000
,
0010
0100
0001
0000
1000
0000
0100
0000
,
0010
0010
0001
0000
1000
0000
0001
0000
,
1000
0100
1000
0000
0001
0000
0100
0000
,
0010
1000
0010
0000
0100
0000
0001
0100
,
0010
0100
0010
0000
0110
0000
1000
0001
,
1000
0001
0100
0000
0101
0000
1000
0010
,
0100
0001
1000
0010
0100
0001
0100
0000
,
0001
0000
0000
1000
0000
0000
0010
0000
1010
0000
0000
0000
0001
0000
0010
0000
,
0010
0100
0100
0000
0110
0000
1000
1000
,
0001
0001
0100
0000
0101
0000
1000
0010
,
1000
0001
1000
0001
0100
0001
1000
0000
,
0000
0000
0000
0000
0110
0000
1000
0010
,
0010
0100
0100
0000
0110
0000
0001
0001
,
1000
1000
0100
0000
1100
0000
0001
0010
,
0001
1000
0001
1000
0100
1000
0100
0000
,
1010
0000
0000
1000
0000
0000
0010
0000
1010
0000
0000
0000
0100
0000
0010
0000
,
0010
0100
0100
0000
0110
0000
0001
0001
,
1000
1000
0001
0000
1001
0000
0001
0010
,
0001
0100
0001
1000
0100
0010
0100
0000
,
1001
0000
0000
0100
0000
0000
0010
0000
0110
0000
0000
0000
1001
0000
0000
0000
;
