#TITLE:Pirate Dance;
#SUBTITLE:;
#ARTIST:From Super Mario World;
#TITLETRANSLIT:;
#SUBTITLETRANSLIT:;
#ARTISTTRANSLIT:;
#GENRE:;
#CREDIT:;
#BANNER:Pirate Dance.png;
#BACKGROUND:Pirate Dance-bg.png;
#LYRICSPATH:;
#CDTITLE:;
#MUSIC:Pirate Dance.ogg;
#OFFSET:1.495368;
#SAMPLESTART:49.519985;
#SAMPLELENGTH:15.000000;
#LASTBEATHINT:1.303901;
#SELECTABLE:YES;
#DISPLAYBPM:160.000000;
#BPMS:0.000000=160.000000
;
#STOPS:
;
#BGCHANGES:3.500=Pirate Dance.avi=1.000=1=0=1===CrossFade==,
240.000=Pirate Dance-bg.png=1.000=1=0=1===CrossFade==,
99999=-nosongbg-=1.000=0=0=0 // don't automatically add -songbackground-
;
#KEYSOUNDS:;
#ATTACKS:;

//---------------dance-single - ----------------
#NOTES:
     dance-single:
     :
     Beginner:
     1:
     0.082675,0.122553,0.000000,0.000000,0.000000,51.000000,51.000000,0.000000,0.000000,0.000000,0.000000,0.082675,0.122553,0.000000,0.000000,0.000000,51.000000,51.000000,0.000000,0.000000,0.000000,0.000000:
0000
0000
0000
0000
,
0000
0000
0000
0000
,
0000
0000
0000
0000
,
0000
0000
0000
0000
,
0000
0000
0000
0000
,
0000
0000
0000
0000
,
0001
0000
0000
0000
,
0000
0000
0000
0000
,
1000
0000
0000
0000
,
0001
0000
1000
0000
,
1000
0000
0000
0000
,
0000
0000
0000
0000
,
0001
0000
0000
0000
,
1000
0000
0001
0000
,
0001
0000
0000
0000
,
1000
0000
0000
0000
,
1000
0000
0000
0000
,
0001
0001
0000
0000
,
0001
0000
0000
0000
,
1000
0000
0000
0000
,
0001
0000
0001
0000
,
0001
0000
0000
0000
,
1000
0000
0000
0000
,
0000
0000
0000
0000
,
0001
0000
0000
0000
,
0001
0000
0000
0000
,
1000
0000
0000
0000
,
0001
0000
0000
0000
,
0001
0000
0000
0000
,
0000
0000
0000
0000
,
1000
0000
0000
0000
,
1000
0000
0000
0000
,
0001
0000
0000
0000
,
0000
0000
0000
0000
,
0001
0000
0000
0000
,
0000
0000
0000
0000
,
1000
0000
0000
0000
,
0001
0000
1000
0000
,
1000
0000
0000
0000
,
0001
0000
0000
0000
,
0001
0000
0000
0000
,
1000
1000
0000
0000
,
1000
0000
0000
0000
,
0001
0000
0000
0000
,
1000
0000
1000
0000
,
1000
0000
0000
0000
,
0001
0000
0000
0000
,
0000
0000
0000
0000
,
1000
0000
0000
0000
,
1000
0000
0000
0000
,
0001
0000
0000
0000
,
1000
0000
0001
0000
,
1000
0000
0000
0000
,
0001
0000
1000
0000
,
1000
0000
0000
0000
;

//---------------dance-single - ----------------
#NOTES:
     dance-single:
     :
     Easy:
     2:
     0.168592,0.225390,0.056738,0.000000,0.000000,104.000000,99.000000,5.000000,0.000000,0.000000,0.000000,0.168592,0.225390,0.056738,0.000000,0.000000,104.000000,99.000000,5.000000,0.000000,0.000000,0.000000:
0000
0000
0000
0000
,
0000
0000
0000
0000
,
0000
0000
0000
0000
,
0000
0000
0000
0000
,
0000
0000
0000
0000
,
0000
0000
0000
0000
,
1000
0000
0000
0000
,
0001
0000
0010
0000
,
0001
0000
0000
0000
,
0010
0000
1000
0000
,
0001
0000
0000
0000
,
1000
0000
0010
0000
,
1000
0000
0000
0000
,
0010
0000
0001
0000
,
0001
0000
0100
0000
,
1000
0000
0000
1000
,
1000
0000
0100
0000
,
0000
1001
0000
0000
,
1000
0000
1000
0000
,
0001
0000
1000
0000
,
0001
0010
0010
0000
,
1001
0000
0000
0000
,
1000
0000
1000
0010
,
1000
0000
0001
0010
,
0001
0000
0001
0010
,
0010
0000
1000
1000
,
1000
0000
0010
0000
,
1000
0000
0000
0000
,
0001
0000
0010
0000
,
0001
0000
0000
0000
,
1000
0000
0010
0000
,
0001
0000
0000
0000
,
0001
0000
0010
0000
,
1000
0000
0000
0000
,
1000
0000
0000
0000
,
0001
0000
0010
0000
,
0001
0000
0000
0000
,
0010
0000
1000
0000
,
1000
0000
0100
0000
,
0001
0000
0000
0001
,
0001
0000
0100
0000
,
0000
1001
0000
0000
,
0001
0000
0001
0000
,
1000
0000
0001
0000
,
1000
0010
0010
0000
,
1001
0000
0000
0000
,
1000
0000
0010
0010
,
0010
0000
0001
0010
,
0001
0000
0001
0001
,
0001
0000
1000
1000
,
1000
0000
0100
0000
,
0001
0001
0010
0010
,
0001
0000
0100
0000
,
1000
1000
0010
0010
,
0010
0000
0000
0000
,
0000
0000
0001
0000
,
0000
0000
0000
0110
;

//---------------dance-single - ----------------
#NOTES:
     dance-single:
     :
     Medium:
     4:
     0.230193,0.290426,0.045390,0.000000,0.000000,142.000000,138.000000,4.000000,0.000000,0.000000,0.000000,0.230193,0.290426,0.045390,0.000000,0.000000,142.000000,138.000000,4.000000,0.000000,0.000000,0.000000:
0000
0000
0000
0000
,
0000
0000
0000
0000
,
0000
0000
0000
0000
,
0000
0000
0000
0000
,
0000
0000
0000
0000
,
0000
0000
0000
0000
,
0010
0000
0001
0000
,
1000
1000
0001
0000
,
0010
0000
1000
0000
,
0001
0010
0100
0000
,
0010
0000
1000
0000
,
0001
0001
1000
0000
,
0010
0000
0001
0000
,
1000
0010
0100
0000
,
0001
0000
0010
0000
,
1000
1000
0100
1000
,
1000
0000
0010
0000
,
0100
0110
0000
0000
,
1000
0000
0001
0000
,
0010
0001
0100
0000
,
0001
1000
1001
0000
,
0010
0010
0001
0100
,
0100
0000
1000
0010
,
1000
0001
0001
0000
,
0100
0000
0001
0010
,
0010
0001
1000
0000
,
0100
0000
0001
0000
,
1000
0001
1000
0000
,
0100
0000
1000
0000
,
0001
1000
0010
0000
,
0100
0000
0001
0000
,
0001
1000
0001
0000
,
0100
0000
1000
0000
,
1000
0001
0010
0000
,
0010
0000
0001
0000
,
1000
1000
0001
0000
,
0010
0000
1000
0000
,
0001
0010
0100
0000
,
1000
0000
0010
0000
,
0001
0001
0100
0001
,
0001
0000
0010
0000
,
0100
0110
0000
0000
,
0001
0000
1000
0000
,
0010
1000
0100
0000
,
1000
0001
1001
0000
,
0010
0010
1000
0100
,
0010
0000
1000
0001
,
0010
0001
0001
0000
,
0010
0000
0001
1000
,
0010
0010
1000
0000
,
0001
0000
0010
0100
,
1000
1000
0001
0001
,
1000
0000
0010
0100
,
0001
0001
1000
1000
,
0010
0000
0000
0100
0000
0000
0000
0000
,
0000
0000
0000
0000
0001
0000
0000
1000
,
0000
0000
0000
0000
0000
0000
0100
0100
;

//---------------dance-single - ----------------
#NOTES:
     dance-single:
     :
     Hard:
     6:
     0.322594,0.419504,0.215603,0.000000,0.000000,199.000000,180.000000,19.000000,0.000000,0.000000,0.000000,0.322594,0.419504,0.215603,0.000000,0.000000,199.000000,180.000000,19.000000,0.000000,0.000000,0.000000:
0000
0000
0000
0000
,
0000
0000
0000
0000
,
0000
0000
0000
0000
,
0000
0000
0000
0000
,
0000
0000
0000
0000
,
0000
0000
0000
0000
,
0100
1000
0010
1000
,
0001
0001
1000
0010
,
0100
0001
0010
0001
,
1000
0001
0100
0001
,
0100
0001
0010
0001
,
1000
1000
0001
0010
,
0100
1000
0010
1000
,
0001
1000
0100
1000
,
1001
0000
0110
0000
,
0001
1000
0010
0000
,
1001
0000
0110
0000
,
0100
1001
0000
0000
,
0100
1000
0001
1000
,
0001
0010
0100
0000
,
0010
0100
0110
0000
,
1000
0001
1000
0100
,
1000
0001
0001
1000
,
0010
0100
0001
1000
,
0001
1000
1000
0001
,
0100
1000
0100
0001
,
1000
0000
0010
1000
,
1000
0010
0010
1000
,
0001
0000
0010
0001
,
1000
0100
0010
0100
,
1000
0000
0010
1000
,
0001
0010
0010
0001
,
0001
0000
0010
0001
,
0001
0100
0010
0100
,
0100
0001
0010
0001
,
1000
1000
0001
0010
,
0100
1000
0010
1000
,
0001
1000
0100
1000
,
1001
0000
0110
0000
,
1000
0001
0010
0000
,
1001
0000
0110
0000
,
0100
1001
0000
0000
,
0100
0001
1000
0001
,
1000
0010
0100
0000
,
0010
0100
0110
0000
,
0001
1000
0001
0100
,
0001
1000
0001
1000
,
0010
0100
0010
1000
,
1000
0001
1000
0001
,
0010
1000
0100
0001
,
1000
1001
0010
0110
,
1000
0000
0100
0000
1000
1000
1000
0000
,
0001
1001
0010
0110
,
0001
0000
0100
0000
0001
0001
0001
0000
,
1001
0000
0000
1001
0000
0000
0000
0000
,
0000
0000
0000
0000
1000
1000
1000
0001
,
0000
0000
0000
0000
0000
0000
0100
0110
;

//---------------dance-single - ----------------
#NOTES:
     dance-single:
     :
     Challenge:
     8:
     0.462006,0.492553,0.306383,0.000000,0.045390,285.000000,258.000000,27.000000,0.000000,0.000000,0.000000,0.462006,0.492553,0.306383,0.000000,0.045390,285.000000,258.000000,27.000000,0.000000,0.000000,0.000000:
0000
0000
0000
0000
,
0000
0000
0000
0000
,
0000
0000
0000
0000
,
0000
0000
0000
0000
,
0000
0000
0000
0000
,
0000
0000
0000
0000
,
0001
0000
0010
0000
0100
1000
0001
0000
,
1000
0001
0010
1001
,
1000
0000
0010
0000
0100
0001
1000
0000
,
0001
0100
0010
0010
0100
0000
0101
0000
,
0001
0000
0010
0000
0100
1000
0001
0000
,
0001
1000
0010
1001
,
1000
0000
0010
0000
0100
0001
1000
0000
,
1000
0100
0010
0010
0100
0000
1100
0000
,
0001
0000
0000
0100
0000
0000
1000
0000
1000
0000
0000
0100
0000
0000
0001
0000
,
0010
0000
0110
0000
1000
0001
0001
0000
,
1000
0000
0000
0100
0000
0000
0001
0000
0001
0000
0000
0100
0000
0000
1000
0000
,
0100
0000
1001
0000
0010
0000
1001
1000
,
0001
0000
1000
0000
0010
1000
0001
0000
,
1000
0010
0100
0000
0001
0010
0100
0000
,
1000
0001
0100
0001
1000
0000
0010
0100
,
0110
0000
0000
0000
,
0001
0100
0001
1000
,
0110
0000
0001
0000
0010
0001
0100
0001
,
1000
0100
1000
1001
,
0001
0000
0010
0000
1000
0001
1001
0000
,
0001
0000
1000
0000
0100
0010
0001
0000
,
1000
1100
0001
0011
,
1000
0000
0001
0000
0100
0010
1000
0000
,
0001
1000
0100
0010
0100
1000
0001
0000
,
0001
0000
1000
0000
0100
0010
0001
0000
,
0001
0101
1000
1010
,
1000
0000
0001
0000
0100
0010
1000
0000
,
1000
0001
0100
0010
0100
0001
1000
0000
,
0001
0000
0010
0000
0100
1000
0001
0000
,
1000
0001
0010
1001
,
1000
0000
0010
0000
0100
0001
1000
0000
,
0001
0100
0010
0010
0100
0000
0101
0000
,
0001
0000
0000
0100
0000
0000
1000
0000
1000
0000
0000
0100
0000
0000
0001
0000
,
0010
0000
0110
0000
0001
1000
1000
0000
,
1000
0000
0000
0100
0000
0000
0001
0000
0001
0000
0000
0100
0000
0000
1000
0000
,
0100
0000
1001
0000
0010
0000
1001
1000
,
1000
0000
0001
0000
0010
0001
1000
0000
,
0001
0010
0100
0000
1000
0010
0100
0000
,
0001
1000
0100
1000
0001
0000
0010
0100
,
0110
0000
0000
0000
,
0001
0010
0100
1000
,
0110
0000
0001
0000
1000
0001
0010
0001
,
1000
0010
0100
0001
,
1001
0000
0100
0000
0010
0001
1001
0000
,
0010
0100
0010
0000
1000
0001
1000
0000
,
0100
1000
0001
0010
0100
1000
0001
0000
,
0010
0100
0010
0000
0001
1000
0001
0000
,
0100
0001
1000
0010
0100
0001
1000
0000
,
0110
0000
0000
1001
0000
0000
0000
0000
,
0000
0000
0000
0000
0001
0010
0100
1000
,
0000
0000
0000
0000
0000
0000
0010
1001
,
0000
0000
0000
0000
0000
0000
0010
0100
;
