#TITLE:Pipe Pop;
#SUBTITLE:;
#ARTIST:From Turkish March;
#TITLETRANSLIT:;
#SUBTITLETRANSLIT:;
#ARTISTTRANSLIT:;
#GENRE:;
#CREDIT:;
#BANNER:Pipe Pop.png;
#BACKGROUND:Pipe Pop-bg.png;
#LYRICSPATH:;
#CDTITLE:;
#MUSIC:Pipe Pop.ogg;
#OFFSET:-0.000994;
#SAMPLESTART:42.239990;
#SAMPLELENGTH:15.000000;
#SELECTABLE:YES;
#DISPLAYBPM:125.000000;
#BPMS:0.000000=124.999992
;
#STOPS:
;
#BGCHANGES:-1.000=Pipe Pop.avi=1.000=1=0=1===CrossFade==,
206.000=Pipe Pop-bg.png=1.000=1=0=1===CrossFade==,
99999=-nosongbg-=1.000=0=0=0 // don't automatically add -songbackground-
;
#KEYSOUNDS:;
#ATTACKS:;

//---------------dance-single - ----------------
#NOTES:
     dance-single:
     :
     Beginner:
     1:
     0.070953,0.101361,0.000000,0.000000,0.000000,49.000000,49.000000,0.000000,0.000000,0.000000,0.000000,0.070953,0.101361,0.000000,0.000000,0.000000,49.000000,49.000000,0.000000,0.000000,0.000000,0.000000:
0000
0000
0000
0000
,
0000
0000
0000
0000
,
0001
0000
0000
0000
,
1000
0000
0000
0000
,
1000
0000
0000
0000
,
0001
0000
0000
0000
,
1000
0000
0000
0000
,
0001
0000
0000
0000
,
0001
0000
0000
0000
,
1000
0000
1000
0000
,
1000
0000
0000
0000
,
0000
0000
0000
0000
,
0001
0000
0000
0000
,
0000
0000
0000
0000
,
1000
0000
0000
0000
,
0000
0000
0000
0000
,
0001
0000
0000
0000
,
1000
0000
0000
0000
,
0001
0000
0000
0000
,
0001
0000
0001
0000
,
0001
0000
0000
0000
,
1000
0000
0000
0000
,
0001
0000
0000
0000
,
1000
0000
0000
0000
,
1000
0000
0000
0000
,
0001
0000
0000
0000
,
1000
0000
0000
0000
,
0001
0000
0000
0000
,
0001
0000
0000
0000
,
1000
0000
1000
0000
,
0001
0000
0000
0000
,
0000
0000
0000
0000
,
0001
0000
0000
0000
,
0000
0000
0000
0000
,
1000
0000
0000
0000
,
0000
0000
0000
0000
,
1000
0000
0000
0000
,
0001
0000
0001
0000
,
1000
0000
0000
0000
,
1000
0000
0000
0000
,
0001
0000
0000
0000
,
1000
0000
0001
0000
,
0001
0000
0000
0000
,
0001
0000
0000
0000
,
1000
0000
0000
0000
,
0001
0000
1000
0000
,
1000
0000
0000
0000
,
0000
0000
0000
0000
,
0001
0000
0000
0000
,
0001
0000
1000
0000
,
0001
0000
0000
0000
;

//---------------dance-single - ----------------
#NOTES:
     dance-single:
     :
     Easy:
     1:
     0.085433,0.152042,0.010136,0.000000,0.000000,59.000000,58.000000,1.000000,0.000000,0.000000,0.000000,0.085433,0.152042,0.010136,0.000000,0.000000,59.000000,58.000000,1.000000,0.000000,0.000000,0.000000:
0000
0000
0000
0000
,
0000
0000
0000
0000
,
1000
0000
0000
0000
,
0001
0000
0001
0000
,
0000
0000
0000
0000
,
1000
0000
1000
0000
,
0001
0000
0000
0000
,
1000
0000
1000
0000
,
0000
0000
0000
0000
,
0001
0000
0010
0000
,
0001
0000
0000
0000
,
1000
0000
0000
0000
,
0010
0000
0000
0000
,
0001
0000
0001
0000
,
1000
0000
0000
0000
,
0010
0000
0000
0000
,
0001
0000
0000
0000
,
1000
0000
1000
0000
,
0001
0000
0000
0000
,
0000
0000
0000
0000
,
1000
0000
0000
0000
,
0000
0000
0000
0000
,
1000
0000
0000
0000
,
0001
0000
0001
0000
,
0000
0000
0000
0000
,
1000
0000
0010
0000
,
0010
0000
0000
0000
,
1000
0000
1000
0000
,
0000
0000
0000
0000
,
0001
0000
0001
0000
,
0010
0000
0000
0000
,
0000
0000
0000
0000
,
0001
0000
0000
0000
,
0000
0000
0000
0000
,
0100
0000
0000
0000
,
0000
0000
0000
0000
,
0001
0001
0000
0000
,
1000
1000
1000
0000
,
1000
0000
0001
0000
,
0001
0000
0000
0000
,
0001
0000
1000
0000
,
0010
0000
0000
0000
,
0001
0000
1000
0000
,
1000
0000
0000
0000
,
1000
0000
0001
0000
,
0010
0000
0010
0000
,
0000
0000
0000
0000
,
0000
0000
0000
0000
,
1001
0000
0000
0000
,
0001
0001
0001
0000
,
1000
0000
0000
0000
;

//---------------dance-single - ----------------
#NOTES:
     dance-single:
     :
     Medium:
     2:
     0.209963,0.228063,0.060817,0.000000,0.000000,145.000000,139.000000,6.000000,0.000000,0.000000,0.000000,0.209963,0.228063,0.060817,0.000000,0.000000,145.000000,139.000000,6.000000,0.000000,0.000000,0.000000:
0000
0000
0000
0000
,
0000
0000
0000
0000
,
1000
0000
0010
0010
,
1000
1000
0100
0000
,
0001
0000
0010
0000
,
1000
1000
1001
0000
,
0001
0000
0010
0010
,
0001
0001
0100
0000
,
1000
0000
0010
0000
,
1000
0001
0001
0010
,
0010
0000
0100
0000
,
1000
0001
0001
0000
,
1000
0000
0100
0000
,
0001
0000
0010
0001
,
0010
0000
0010
0000
,
0100
1000
1000
0000
,
1000
0000
0001
0000
,
0010
0010
0100
0100
,
0010
0000
1000
0001
,
1000
0000
0010
0001
,
0001
0100
0100
0000
,
1000
1000
0001
0001
,
1000
0000
0010
0010
,
1000
1000
0100
0000
,
0001
0000
0010
0000
,
1000
0001
1001
0000
,
1000
0010
0000
0010
,
0001
0001
0100
0000
,
0100
0000
0010
0000
,
1000
0001
0010
0010
,
1001
0000
1000
0000
,
0100
0001
0010
0000
,
0001
0000
1000
0000
,
0010
0010
0100
0000
,
1001
0000
0010
0000
,
0100
0001
0100
0000
,
1000
0000
1000
0000
,
0001
0001
1000
0010
,
0010
0000
1000
0010
,
0010
1000
0001
0000
,
0010
0000
0001
0010
,
0010
0100
1000
0000
,
0010
0000
1000
0010
,
0010
0001
1000
0000
,
0010
0000
0001
0010
,
0010
0100
0010
0000
,
1000
0000
0001
1000
,
0100
0100
1001
0000
,
0001
0010
1000
0000
,
0001
1000
0010
0100
,
0110
0000
0000
0000
;

//---------------dance-single - ----------------
#NOTES:
     dance-single:
     :
     Hard:
     4:
     0.269331,0.278744,0.101361,0.000000,0.000000,186.000000,176.000000,10.000000,0.000000,0.000000,0.000000,0.269331,0.278744,0.101361,0.000000,0.000000,186.000000,176.000000,10.000000,0.000000,0.000000,0.000000:
0000
0000
0000
0000
,
0000
0000
0000
0000
,
0001
0010
0010
0100
,
1000
1000
1001
0001
,
0001
0001
1000
1000
,
1000
0010
0100
0000
,
1000
0010
0010
0100
,
0001
0001
1001
1000
,
1000
1000
0001
0001
,
0001
1000
0001
1001
,
0100
0000
0010
1000
,
1000
0001
0001
0010
,
0100
0000
0100
1000
,
0001
1000
0010
0010
,
1000
0000
0010
1000
,
0100
0100
0010
0001
,
0001
0000
1000
0001
,
0010
0001
1000
0100
,
1000
0000
0010
0100
,
0001
0000
0001
0000
1000
1000
1000
0000
,
0010
0000
1001
0010
,
0100
0100
0001
0000
,
0001
0010
0010
0100
,
1000
1000
1001
0001
,
0001
0001
1000
1000
,
1000
0010
0001
0000
,
0000
0110
0010
0100
,
0001
0001
1001
1000
,
0001
0001
1000
0100
,
0010
0100
0110
1000
,
0001
0000
0001
1000
,
0010
0100
0010
0000
,
1000
0000
0001
0010
,
0001
0100
0010
0000
,
0100
0000
0001
1000
,
0010
1000
0010
0000
,
1000
0000
0100
0010
,
0001
1000
0010
1001
,
0100
1000
0010
0100
,
0001
0100
1000
0100
,
0100
0001
0010
0100
,
1000
0001
0010
0000
,
0100
1000
0010
0100
,
1000
0100
0001
0100
,
0100
0001
0010
0100
,
1000
0001
0100
0000
,
0100
0001
1000
0010
,
1000
0000
0001
0000
0100
0100
0100
0000
,
0010
0100
0001
1000
,
0001
0100
0010
1001
,
0100
0000
0000
0000
;

//---------------dance-single - ----------------
#NOTES:
     dance-single:
     :
     Challenge:
     8:
     0.409789,0.456696,0.233131,0.000000,0.055749,283.000000,260.000000,23.000000,0.000000,0.000000,0.000000,0.409789,0.456696,0.233131,0.000000,0.055749,283.000000,260.000000,23.000000,0.000000,0.000000,0.000000:
0000
0000
0000
0000
,
0000
0000
0000
0000
,
0010
0001
0010
0000
0100
1000
0100
0000
,
1000
0010
0100
0001
0100
0001
1000
0000
,
0001
0010
0100
0010
0001
0010
0100
0010
,
0001
0000
0010
0000
0100
1000
0000
0000
0100
0000
0000
0000
0000
0000
0000
0000
,
0010
1000
0010
0000
0100
0001
0100
0000
,
0001
0010
0100
1000
0100
0000
1001
0000
,
1000
0010
0100
0010
1000
0010
0100
0010
,
0110
1001
0110
1001
,
0100
0000
0001
0010
,
0001
1000
0100
0010
,
0100
1000
0001
0010
,
0001
1000
1001
0101
,
0110
0000
0001
0010
,
0001
0000
0100
0000
0010
0010
1000
0000
,
0100
0000
1001
0000
0001
0000
0010
0001
,
1000
0000
0100
0000
1000
0000
1000
0010
,
0100
0000
0001
1000
0001
0000
0100
0000
,
0001
0000
0010
0001
0100
0000
0010
0000
,
1000
0000
0010
1000
0001
0000
0100
0000
,
0010
0000
0100
0001
0010
0000
1001
0000
,
0010
0001
0010
0000
0100
1000
0100
0000
,
1000
0010
0100
0001
0100
0000
1001
0000
,
0001
0010
0100
0010
0001
0010
0100
0010
,
0001
0000
0010
0000
0100
1000
0000
0000
1100
0000
0000
0000
0000
0000
0000
0000
,
1000
0001
0010
0000
0100
1000
0001
0000
,
0001
0010
0100
1000
0100
0000
1001
0000
,
1000
0010
0100
0010
0001
0010
0100
0010
,
0110
0101
1001
1100
,
0011
0000
0000
0000
,
1000
0010
0100
0000
,
0001
0000
0000
0000
1000
1000
0010
0000
,
1000
0000
0010
0000
0100
0100
0001
0000
,
0101
0000
0000
0001
,
1000
0000
0010
0000
0100
0001
0100
0000
,
0001
0000
0001
0000
1000
0010
0100
0000
,
0001
1000
0000
0000
1000
0001
0000
0000
0001
0010
0000
0000
0010
0100
0000
0000
,
1000
0000
0001
0010
0001
1000
0001
0100
,
0010
0000
1001
0000
0101
0000
0010
1000
,
0001
0000
1000
0010
1000
0001
1000
0100
,
1000
0001
0100
0010
0100
0000
0001
0001
,
1000
0000
0001
0010
0001
1000
0001
0100
,
0010
0000
1001
0000
1100
0000
0010
1000
,
0001
0000
1000
0010
1000
0001
1000
0100
,
1000
0001
0100
1000
0100
0000
0000
0000
,
0001
0010
0010
0001
,
1000
1000
0001
0100
0100
0000
0001
0000
,
0010
0000
0100
0000
0010
0010
0010
0000
,
0100
1000
0000
0000
1000
0001
0000
0000
0001
1000
0000
0000
0010
0100
0000
0000
,
0100
0001
0000
0000
0000
0000
0000
0000
0000
0000
0000
0000
0000
0000
0000
0000
;
