#TITLE:Ms. Mowz's Song;
#SUBTITLE:;
#ARTIST:From Paper Mario;
#TITLETRANSLIT:;
#SUBTITLETRANSLIT:;
#ARTISTTRANSLIT:;
#GENRE:;
#CREDIT:;
#BANNER:Ms. Mowz's Song.png;
#BACKGROUND:Ms. Mowz's Song-bg.png;
#LYRICSPATH:;
#CDTITLE:;
#MUSIC:Ms. Mowz's Song.ogg;
#OFFSET:1.898254;
#SAMPLESTART:15.240012;
#SAMPLELENGTH:15.000000;
#LASTBEATHINT:2.080981;
#SELECTABLE:YES;
#DISPLAYBPM:140.000000;
#BPMS:0.000000=140.000000
;
#STOPS:
;
#BGCHANGES:3.800=Ms. Mowz's Song.avi=1.000=1=0=1===CrossFade==,
224.000=Ms. Mowz's Song-bg.png=1.000=1=0=1===CrossFade==,
99999=-nosongbg-=1.000=0=0=0 // don't automatically add -songbackground-
;
#KEYSOUNDS:;
#ATTACKS:;

//---------------dance-single - ----------------
#NOTES:
     dance-single:
     :
     Beginner:
     1:
     0.181462,0.282129,0.115476,0.000000,0.000000,121.000000,110.000000,11.000000,0.000000,0.000000,0.000000,0.181462,0.282129,0.115476,0.000000,0.000000,121.000000,110.000000,11.000000,0.000000,0.000000,0.000000:
0000
0000
0000
0000
,
0000
0000
0000
0000
,
0000
0000
0000
0000
,
0000
0000
0000
0000
,
0000
0000
0000
0000
,
0000
0000
0000
0000
,
0000
0000
0000
0000
,
0000
0000
0000
0000
,
0000
0000
0000
0000
,
0000
0000
0000
0000
,
0001
0000
1000
0000
,
0001
0001
0000
0000
,
1000
0000
0001
0000
,
1000
1000
0000
0000
,
0001
0000
1000
0000
,
0001
0001
0000
0000
,
1000
0000
0001
0000
,
1000
1000
0001
0001
,
1001
0000
1000
0000
,
0001
0000
1000
0000
,
0001
0001
0001
0000
,
1000
1000
1000
0000
,
0001
0000
1000
0000
,
0001
0000
1000
0000
,
0001
1000
0001
0000
,
1000
0001
1000
0000
,
1001
0000
0001
0000
,
1000
1000
0001
0000
,
1001
0000
1000
0000
,
0001
0001
1000
0000
,
1001
0000
0001
0000
,
1000
1000
0001
0000
,
1001
0000
1000
0000
,
0001
0001
1000
0000
,
1000
1000
1000
0000
,
0001
1000
0001
0000
,
0001
0001
0001
0000
,
1000
0001
1000
0000
,
1001
0000
0001
0000
,
1000
0000
0001
0000
,
1001
0000
0001
0000
,
1000
0001
1000
0001
,
1001
1000
0000
0000
,
0001
0001
0000
0000
,
1000
1000
0000
0000
,
1001
0000
0000
0000
,
1000
0001
0000
0000
,
1000
0001
0000
0000
,
0001
1000
0000
0000
,
1001
0000
0000
0000
,
1000
1000
0001
0001
,
1000
1000
0001
0001
,
1000
0001
1000
0001
,
1000
0001
1000
1001
;

//---------------dance-single - ----------------
#NOTES:
     dance-single:
     :
     Easy:
     2:
     0.202458,0.225703,0.062987,0.000000,0.000000,135.000000,129.000000,6.000000,0.000000,0.000000,0.000000,0.202458,0.225703,0.062987,0.000000,0.000000,135.000000,129.000000,6.000000,0.000000,0.000000,0.000000:
0000
0000
0000
0000
,
0000
0000
0000
0000
,
0000
0000
0000
0000
,
0000
0000
0000
0000
,
0000
0000
0000
0000
,
0000
0000
0000
0000
,
0000
0000
0000
0000
,
0000
0000
0000
0000
,
1000
0000
0010
0000
,
0100
0000
0010
0000
,
0001
0000
0001
0010
,
0010
0001
0100
0000
,
1000
0000
1000
0010
,
0010
1000
0100
0000
,
0001
0000
0001
0010
,
0010
0001
0100
0000
,
1000
0000
0001
0010
,
0010
0001
1000
0000
,
0001
0000
0001
0000
,
1000
0000
1000
0000
,
0001
1000
0001
0000
,
0001
1000
0010
0000
,
0100
0001
0010
0000
,
0100
0010
0010
0000
,
0001
0010
0001
0000
,
1000
0010
1000
0000
,
1001
0000
0100
0000
,
0001
0000
0010
0001
,
0001
0000
0100
0000
,
0001
0001
0010
0000
,
1001
0000
1000
0000
,
0001
0000
0100
0001
,
1000
0000
0010
1000
,
0100
0100
1000
0000
,
0110
0000
0001
0010
,
0010
0000
0001
0100
,
0100
0000
0001
1000
,
0100
0000
1000
0001
,
0010
0000
0100
0000
,
0001
0000
0000
0000
1000
0000
0000
0001
,
0001
0000
1001
0000
,
1000
1000
0100
0010
,
0001
0000
0010
0100
,
1000
0000
0010
0100
,
0001
0000
0010
0100
,
0010
0000
1001
0000
,
1000
0000
0010
0100
,
0001
0000
0010
0100
,
1000
0000
0010
0100
,
0010
0000
1001
0000
,
0001
0000
1000
0100
,
0001
0000
0100
1000
,
1000
0000
0001
0100
,
0001
1000
0010
0100
;

//---------------dance-single - ----------------
#NOTES:
     dance-single:
     :
     Medium:
     4:
     0.262445,0.310341,0.094480,0.000000,0.000000,175.000000,166.000000,9.000000,0.000000,0.000000,0.000000,0.262445,0.310341,0.094480,0.000000,0.000000,175.000000,166.000000,9.000000,0.000000,0.000000,0.000000:
0000
0000
0000
0000
,
0000
0000
0000
0000
,
0000
0000
0000
0000
,
0000
0000
0000
0000
,
0000
0000
0000
0000
,
0000
0000
0000
0000
,
0000
0000
0000
0000
,
0000
0000
0000
0000
,
0001
0010
0100
0010
,
0001
0010
0100
1000
,
0100
0000
1000
0001
,
1000
0010
0010
0100
,
0100
0000
0001
1000
,
0001
0010
0010
0100
,
0100
0000
1000
0001
,
1000
0010
0010
0100
,
0010
0000
1000
0001
,
1000
0001
0010
0100
,
1000
0000
0100
0010
,
0001
0000
0100
0010
,
1000
1000
0001
0010
,
0010
0001
0001
1000
,
0001
0000
0001
0010
,
0001
0100
0001
1000
,
0010
1000
0001
0010
,
0010
0001
1000
0010
,
0100
0000
0110
0001
,
1000
0010
0100
0000
,
0100
0000
1001
0001
,
1000
0001
0100
0010
,
0110
0000
0100
0001
,
1000
0010
1000
0000
,
0010
0010
0001
1000
,
0001
0000
0001
0000
1000
1000
1000
0000
,
0010
0000
0100
0010
,
0010
1000
0100
0010
,
0001
0000
0100
0110
,
1000
0000
0100
0110
,
0001
0000
1001
0000
,
1000
0000
0010
0000
1000
0000
0000
1000
,
0001
0000
0101
0000
,
0010
0100
0001
1000
,
0001
0001
1000
0100
,
1000
1000
0001
0100
,
0001
0001
1000
0100
,
0010
0000
0000
0000
0001
1000
1000
0000
,
1000
1000
0001
0100
,
0001
0001
1000
0100
,
1000
1000
0001
0100
,
0010
0000
0000
0000
1000
0001
0001
0000
,
0001
0100
1000
0100
,
0001
0001
1000
0001
,
1000
0100
0001
0100
,
1000
0001
0110
1001
;

//---------------dance-single - ----------------
#NOTES:
     dance-single:
     :
     Hard:
     6:
     0.319433,0.395898,0.115476,0.000000,0.000000,213.000000,202.000000,11.000000,0.000000,0.000000,0.000000,0.319433,0.395898,0.115476,0.000000,0.000000,213.000000,202.000000,11.000000,0.000000,0.000000,0.000000:
0000
0000
0000
0000
,
0000
0000
0000
0000
,
0000
0000
0000
0000
,
0000
0000
0000
0000
,
0000
0000
0000
0000
,
0000
0000
0000
0000
,
0000
0000
0000
0000
,
0000
0000
0000
0000
,
0001
0010
0100
1000
,
1000
0010
0100
0001
,
1000
0000
1000
0001
1000
0000
0001
0000
,
0010
0100
1000
0010
,
0001
0000
0001
1000
0001
0000
0010
0000
,
0100
1000
0010
0110
,
0001
0000
0001
0010
0001
0000
0100
0000
,
0001
0010
0100
0001
,
1000
0000
1000
0010
1000
0000
0100
0000
,
0010
1000
0100
0110
,
0001
0000
0001
0000
0100
0000
1000
0100
,
1000
0000
0001
0000
0010
0000
0001
0010
,
0001
0000
0100
0000
0010
0000
0001
1000
,
0100
0000
0010
0000
0001
0000
0100
0010
,
0100
0000
0001
0000
0010
0000
1000
0001
,
0010
0000
0100
0000
0001
0000
1000
0001
,
0100
0000
0001
0000
0010
0000
0001
1000
,
0100
0000
0010
0000
0100
0000
0001
1000
,
0001
0010
0100
1000
,
0001
0010
0100
1000
,
1000
0010
0100
0001
,
1000
0010
0100
0001
,
0001
0010
0100
1000
,
1000
0100
0010
0001
,
1000
0010
0100
0001
,
0001
0100
0010
1000
,
0001
0001
0100
0110
,
1000
1000
0010
1001
,
0010
1000
0100
0110
,
0001
0010
1000
0001
,
0101
1000
0010
0000
,
0010
0000
0000
0000
0010
0000
0000
1000
,
0100
0000
0101
0000
,
1001
0110
1001
0110
,
1000
0000
1000
0000
0001
0000
0100
0010
,
0100
0000
1000
0000
0010
0000
0001
0100
,
0001
0000
0010
0000
0100
0000
1000
0010
,
1000
0000
0000
0000
0001
0100
0100
0000
,
0001
0000
0001
0000
1000
0000
0100
0010
,
0100
0000
0001
0000
0010
0000
1000
0100
,
1000
0000
0010
0000
0100
0000
0001
0010
,
0001
0000
0000
0000
1000
0100
0100
0000
,
0010
0000
0100
0000
1000
0000
0010
0100
,
0010
0000
1000
0000
0001
0000
1000
0010
,
1000
0001
0100
1000
,
0100
0000
0010
0000
0001
1000
0001
0100
;

//---------------dance-single - ----------------
#NOTES:
     dance-single:
     :
     Challenge:
     7:
     0.391418,0.480734,0.230952,0.000000,0.000000,261.000000,239.000000,22.000000,0.000000,0.000000,0.000000,0.391418,0.480734,0.230952,0.000000,0.000000,261.000000,239.000000,22.000000,0.000000,0.000000,0.000000:
0000
0000
0000
0000
,
0000
0000
0000
0000
,
0000
0000
0000
0000
,
0000
0000
0000
0000
,
0000
0000
0000
0000
,
0000
0000
0000
0000
,
0000
0000
0000
0000
,
0000
0000
0000
0000
,
0001
1001
0100
0010
,
0100
1001
0100
0010
,
0001
0000
1000
0100
1000
0001
0000
0010
,
0000
0110
0000
1000
0000
0010
0100
0001
,
1000
0000
0001
0100
0001
1000
0000
0010
,
0000
0110
0000
0001
0000
0010
0100
1000
,
0001
0000
1000
0100
1000
0001
0000
0010
,
0000
0110
0000
1000
0000
0010
0100
0001
,
1000
0000
1000
0010
1000
0001
0000
0010
,
0000
0110
0000
1000
0000
0001
0100
0001
,
0010
0000
0001
0000
1000
0000
0100
1000
,
0010
0000
1000
0000
0001
0000
0100
0001
,
0010
0000
1001
0000
1000
0000
0100
1000
,
0100
0000
1001
0000
1000
0000
0001
1000
,
0001
0000
0010
0000
0001
0001
1000
0000
,
0001
0000
0100
0000
0001
1000
1000
0000
,
1000
0000
0001
0000
1001
0000
0100
1000
,
0001
0000
1000
0000
1001
0000
0100
0001
,
1000
0100
0010
0000
0001
0010
0001
0000
,
1000
0000
1000
0000
0001
0100
1000
0000
,
1000
0100
0001
0000
0001
0010
0100
0000
,
1000
0000
0001
0000
0010
0100
1000
0000
,
0010
0100
0010
0000
1000
0010
0100
0000
,
0001
0000
1000
0000
0001
0100
0010
0000
,
1000
0000
1000
0000
0001
0000
0010
0100
,
0010
0000
0001
0000
0010
0001
1000
0000
,
0100
1000
0010
1000
,
0001
1000
0010
1000
,
0100
1000
0010
1010
,
0100
0001
0010
0011
,
1100
0000
1001
0000
,
0010
0000
0000
0000
0000
0000
0000
1000
,
0001
0001
0001
0010
0001
0001
0001
0100
,
0001
0101
1001
0110
,
1000
0001
0010
0000
0010
0100
0000
1000
,
0001
1000
0010
0000
0010
0100
0000
0001
,
1000
0001
0010
0000
0010
0100
0000
1000
,
0001
0000
0100
0000
0001
0001
1001
0000
,
0001
1000
0010
0000
0010
0100
0000
0001
,
1000
0001
0010
0000
0010
0100
0000
1000
,
0001
1000
0010
0000
0010
0100
0000
0001
,
1000
0000
0100
0000
1000
1000
1001
0000
,
0100
0001
0010
0000
0010
0100
0000
1001
,
0100
0010
1000
0000
0010
0100
0000
1001
,
0100
1000
0010
0000
0010
0100
0000
1001
,
0001
0001
0100
0010
1000
1000
0001
1000
;
