#TITLE:Moustache, Barrel, and Gorilla;
#SUBTITLE:;
#ARTIST:From Donkey Kong;
#TITLETRANSLIT:;
#SUBTITLETRANSLIT:;
#ARTISTTRANSLIT:;
#GENRE:;
#CREDIT:;
#BANNER:Moustache Barrel and Gorilla.png;
#BACKGROUND:Moustache Barrel and Gorilla-bg.png;
#LYRICSPATH:;
#CDTITLE:;
#MUSIC:Moustache Barrel and Gorilla.ogg;
#OFFSET:1.794182;
#SAMPLESTART:31.699995;
#SAMPLELENGTH:15.000000;
#LASTBEATHINT:1.785628;
#SELECTABLE:YES;
#DISPLAYBPM:136.000000;
#BPMS:0.000000=136.000000
;
#STOPS:
;
#BGCHANGES:3.500=Moustache Barrel and Gorilla.avi=1.000=1=0=1===CrossFade==,
213.000=Moustache Barrel and Gorilla-bg.png=1.000=1=0=1===CrossFade==,
99999=-nosongbg-=1.000=0=0=0 // don't automatically add -songbackground-
;
#KEYSOUNDS:;
#ATTACKS:;

//---------------dance-single - ----------------
#NOTES:
     dance-single:
     :
     Beginner:
     1:
     0.179005,0.220362,0.043208,0.000000,0.000000,116.000000,112.000000,4.000000,0.000000,0.000000,0.000000,0.179005,0.220362,0.043208,0.000000,0.000000,116.000000,112.000000,4.000000,0.000000,0.000000,0.000000:
0000
0000
0000
0000
,
0000
0000
0000
0000
,
0000
0000
0000
0000
,
0000
0000
0000
0000
,
0000
0000
0000
0000
,
0000
0000
0000
0000
,
0000
0000
0000
0000
,
0001
1000
0001
0000
,
1000
0000
1000
0000
,
0001
0000
0001
0000
,
1000
0001
1001
0000
,
1000
1000
0001
0000
,
1000
1000
0001
0000
,
0001
0001
1000
0000
,
0001
0001
1000
0000
,
1000
1000
0001
0000
,
1000
1000
0001
0000
,
0001
0001
1000
0000
,
0001
0000
0001
0000
,
1000
0000
1000
1000
,
0001
0000
0001
0001
,
1000
0000
1000
1000
,
0001
0000
0001
0001
,
1000
0000
1000
1000
,
0001
0000
0001
0001
,
1000
0000
1000
1000
,
0001
0000
0001
0001
,
1000
0000
0001
0000
,
1000
0000
0001
0000
,
1000
0000
1000
0000
,
0001
0000
0001
0000
,
1000
0000
0001
0000
,
1000
0000
1000
0000
,
0001
0000
1000
0000
,
1001
0000
0000
0000
,
1000
0000
0001
0000
,
1000
1000
1000
0000
,
0001
0000
1000
0000
,
0001
0001
0001
0000
,
1000
0000
0000
0001
,
1000
0000
0000
0001
,
0001
0000
0000
1000
,
0001
0000
0000
0000
,
0001
0001
0001
0000
,
1000
1000
1000
0000
,
0001
0001
1000
0000
,
0001
0001
1000
0000
,
1000
0001
1000
0000
,
0001
1000
0001
0000
,
1000
1000
0001
0000
,
1001
0000
0000
0000
,
1001
0000
0000
0000
;

//---------------dance-single - ----------------
#NOTES:
     dance-single:
     :
     Easy:
     2:
     0.179005,0.220362,0.032406,0.000000,0.000000,116.000000,113.000000,3.000000,0.000000,0.000000,0.000000,0.179005,0.220362,0.032406,0.000000,0.000000,116.000000,113.000000,3.000000,0.000000,0.000000,0.000000:
0000
0000
0000
0000
,
0000
0000
0000
0000
,
0000
0000
0000
0000
,
0000
0000
0000
0000
,
0000
0000
0000
0000
,
0000
0000
0000
0000
,
0000
0000
0000
0000
,
1000
0000
0001
0000
,
0010
0000
0001
0000
,
1000
0000
1000
0010
,
0010
0000
0100
0000
,
0001
0000
0001
0000
,
1000
0000
1000
0000
,
0001
0010
0010
0000
,
1000
0010
0010
0000
,
0001
0000
0001
0000
,
1000
0000
1000
0000
,
0001
0010
0010
0000
,
0100
0000
0010
0000
,
0001
0000
1000
1000
,
0010
0000
1000
0010
,
1000
0000
0001
0001
,
0010
0000
0001
0010
,
0001
0000
1000
0010
,
0010
0000
1000
0100
,
1000
0000
0001
0010
,
0010
0000
0001
0001
,
0001
0000
0001
0000
,
1000
0000
1000
0000
,
1000
0010
0010
0000
,
0001
0010
0010
0000
,
0001
0000
0001
0000
,
1000
0000
1000
0000
,
1000
0010
0010
0000
,
1001
0000
0000
0000
,
0100
0000
0000
1000
,
1000
0000
0000
0001
,
0010
0000
0000
1000
,
0010
0000
0000
0001
,
0100
0000
0001
0010
,
0010
0000
0001
0100
,
0001
0000
1000
0100
,
1000
0000
0000
0000
0000
0001
0000
0000
,
0001
0001
0001
0000
,
0001
0001
0010
0000
,
1000
1000
1000
0000
,
1000
1000
0010
0000
,
0001
0001
0001
0000
,
0001
0001
0010
0000
,
1000
1000
1000
0000
,
0010
0000
0110
0000
,
0110
0000
0000
0000
;

//---------------dance-single - ----------------
#NOTES:
     dance-single:
     :
     Medium:
     3:
     0.220671,0.247907,0.064812,0.000000,0.000000,143.000000,137.000000,6.000000,0.000000,0.000000,0.000000,0.220671,0.247907,0.064812,0.000000,0.000000,143.000000,137.000000,6.000000,0.000000,0.000000,0.000000:
0000
0000
0000
0000
,
0000
0000
0000
0000
,
0000
0000
0000
0000
,
0000
0000
0000
0000
,
0000
0000
0000
0000
,
0000
0000
0000
0000
,
0000
0000
0000
0000
,
0001
0010
0001
0001
,
0100
0000
1000
0000
,
0010
1000
1000
0100
,
1000
0000
1001
0001
,
0001
0000
0010
0001
,
1000
0000
0010
1000
,
0001
0000
1000
0001
,
1000
0000
0001
1000
,
0001
0000
0010
0001
,
1000
0000
0010
1000
,
0001
0000
1000
0001
,
1000
0010
0100
0000
,
0010
0000
1000
0001
,
0100
0100
0001
0000
,
0010
0000
0001
1000
,
0100
0100
1000
0000
,
0010
0000
1000
0010
,
0100
0001
0001
0000
,
0010
0000
0001
0010
,
0100
0100
0010
0000
,
0001
0000
0010
0001
,
1000
0000
0010
1000
,
1000
0000
0001
1000
,
0001
0000
1000
0001
,
0001
0000
0010
0001
,
1000
0000
0010
1000
,
1000
0000
0001
1000
,
1001
0000
0000
0010
,
0001
0000
1001
0000
,
1000
0100
0010
0010
,
0001
0000
0110
0000
,
1000
0001
0010
0010
,
0100
0000
1000
1000
,
0010
0000
0100
0001
,
0001
0000
0100
1000
,
0100
0000
0010
0000
0000
0110
0000
0000
,
0001
0001
0001
1000
,
0001
0010
0001
0000
,
1000
1000
1000
0001
,
1000
0010
1000
0000
,
0001
0001
0001
1000
,
0001
0010
0001
0000
,
1000
1000
1000
0001
,
0100
0000
0100
0010
,
0110
0000
0000
0000
;

//---------------dance-single - ----------------
#NOTES:
     dance-single:
     :
     Hard:
     5:
     0.266965,0.304483,0.118823,0.000000,0.000000,173.000000,162.000000,11.000000,0.000000,0.000000,0.000000,0.266965,0.304483,0.118823,0.000000,0.000000,173.000000,162.000000,11.000000,0.000000,0.000000,0.000000:
0000
0000
0000
0000
,
0000
0000
0000
0000
,
0000
0000
0000
0000
,
0000
0000
0000
0000
,
0000
0000
0000
0000
,
0000
0000
0000
0000
,
0000
0000
0000
0000
,
0010
0001
0001
1000
,
1000
0100
1000
0000
,
0010
0010
1000
0001
,
0001
1000
1001
0010
,
0100
0000
1000
1000
,
0100
0000
0001
0001
,
1001
1000
0100
1000
,
1001
0001
0100
0001
,
0100
0000
0001
0001
,
0100
0000
1000
1000
,
1001
1000
0100
1000
,
0010
0010
0100
0001
,
1000
1000
1000
0010
,
0100
0000
0001
0010
,
0001
0001
0001
0010
,
0100
0000
1000
0010
,
1000
0001
1000
0010
,
0100
0001
0010
0000
,
0001
1000
0001
0010
,
0001
0001
1000
0010
,
0100
0000
1000
1000
,
0100
0000
0001
0001
,
1001
0001
0100
0001
,
1001
1000
0100
1000
,
0100
0000
0001
0001
,
0100
0000
1000
1000
,
1001
0001
0100
0001
,
0101
0000
0000
0000
0000
0000
1000
1000
,
1000
0000
0100
0001
,
1000
0010
1000
1000
,
0010
0000
0100
0001
,
1000
0010
1000
0100
,
1000
0000
0010
0110
,
0001
0000
0100
1001
,
0010
0010
1000
1000
,
0001
0000
0001
0000
0100
0100
0000
0000
,
0001
0100
0001
1000
,
0010
0100
0001
1000
,
1000
0100
1000
0001
,
0010
0100
1000
0001
,
0001
0100
0001
1000
,
0010
0100
0001
1000
,
1000
0100
1000
0001
,
1001
0000
0000
0000
0010
0010
0010
0000
,
0100
0100
0100
0000
0000
0000
0000
0000
;

//---------------dance-single - ----------------
#NOTES:
     dance-single:
     :
     Challenge:
     7:
     0.395047,0.442884,0.172833,0.000000,0.156630,256.000000,240.000000,16.000000,0.000000,0.000000,0.000000,0.395047,0.442884,0.172833,0.000000,0.156630,256.000000,240.000000,16.000000,0.000000,0.000000,0.000000:
0000
0000
0000
0000
,
0000
0000
0000
0000
,
0000
0000
0000
0000
,
0000
0000
0000
0000
,
0000
0000
0000
0000
,
0000
0000
0000
0000
,
0000
0000
0000
0000
,
0100
0000
0100
1000
0001
0000
1000
0000
,
0010
0010
0100
0100
,
0001
0010
0001
0000
1000
0100
1000
0000
,
0001
1000
0010
0100
0010
0000
1001
0000
,
0100
0000
0001
0000
1000
0010
1000
0000
,
0100
0000
1000
0000
0001
0010
0001
0000
,
1000
0001
0100
0000
0001
0000
1001
0000
,
0001
1000
0100
0000
1000
0000
1001
0000
,
0100
0000
0001
0000
1000
0010
1000
0000
,
0100
0000
1000
0000
0001
0010
0001
0000
,
1000
0001
0100
0000
0001
0000
1001
0000
,
0010
1000
0001
0100
,
0001
0000
0000
0000
0001
0000
0000
1000
0000
0000
0010
0000
1000
0000
0010
0000
,
0100
0000
0000
0000
0001
0000
0000
1000
0000
0000
0100
0000
1000
0000
0100
0000
,
1000
0000
0000
0000
1000
0000
0000
0001
0000
0000
0010
0000
0001
0000
0010
0000
,
0100
0000
0000
0000
1000
0000
0000
0001
0000
0000
0100
0000
0001
0000
0100
0000
,
0001
0000
0000
0000
0001
0000
0000
0100
0000
0000
0010
0000
1000
0000
0010
0000
,
0100
0000
0000
0000
0001
0000
0000
1000
0000
0000
0100
0000
1000
0000
0010
0000
,
1000
0000
0000
0000
1000
0000
0000
0100
0000
0000
0010
0000
0001
0000
0010
0000
,
0100
0000
0000
0000
1000
0000
0000
1000
0000
0000
0100
0000
1000
0000
0010
0000
,
0100
0000
0001
0000
1000
0010
1000
0000
,
0100
0000
1000
0000
0001
0010
0001
0000
,
0001
1000
0100
0000
1000
0000
1001
0000
,
1000
0001
0100
0000
0001
0000
1001
0000
,
0100
0000
0001
0000
1000
0010
1000
0000
,
0100
0000
1000
0000
0001
0010
0001
0000
,
0001
1000
0100
0000
1000
0000
1001
0000
,
0110
0000
0000
0000
0000
0000
0010
1000
,
0100
0000
1000
0000
0001
0100
0010
1000
,
0001
1000
0100
1100
,
0001
0000
1000
0000
0010
0100
0010
1000
,
0001
1000
0100
0011
,
1000
0000
0010
0000
1000
0001
0100
0001
,
0010
0000
0001
0000
1000
0000
0010
0100
,
0001
0000
1000
0000
0100
0010
0001
0010
,
0100
0000
1000
0000
0001
0101
0000
0000
,
1000
0001
0000
0000
0010
0001
0000
0000
1000
0001
0000
0000
0110
0000
0000
0000
,
1000
0001
0000
0000
0100
0001
0000
0000
1000
0001
0000
0000
0000
0000
0000
0000
,
0001
1000
0000
0000
0010
1000
0000
0000
0001
1000
0000
0000
0110
0000
0000
0000
,
0001
1000
0000
0000
0100
1000
0000
0000
0001
1000
0000
0000
0000
0000
0000
0000
,
1000
0001
0000
0000
0010
0001
0000
0000
1000
0001
0000
0000
0110
0000
0000
0000
,
1000
0001
0000
0000
0100
0001
0000
0000
1000
0001
0000
0000
0000
0000
0000
0000
,
0001
1000
0000
0000
0010
1000
0000
0000
0001
1000
0000
0000
0110
0000
0000
0000
,
1001
0000
0000
0000
0010
0100
0001
0000
,
1000
0010
0100
0000
0000
0000
0000
0000
;
