#TITLE:Midnight Drive;
#SUBTITLE:;
#ARTIST:From Mario Kart 64;
#TITLETRANSLIT:;
#SUBTITLETRANSLIT:;
#ARTISTTRANSLIT:;
#GENRE:;
#CREDIT:;
#BANNER:Midnight Drive.png;
#BACKGROUND:Midnight Drive-bg.png;
#LYRICSPATH:;
#CDTITLE:;
#MUSIC:Midnight Drive.ogg;
#OFFSET:1.963045;
#SAMPLESTART:19.469995;
#SAMPLELENGTH:15.000000;
#LASTBEATHINT:1.961112;
#SELECTABLE:YES;
#DISPLAYBPM:123.000000;
#BPMS:0.000000=123.000000
;
#STOPS:
;
#BGCHANGES:3.500=Midnight Drive.avi=1.000=1=0=1===CrossFade==,
204.000=Midnight Drive-bg.png=1.000=1=0=1===CrossFade==,
99999=-nosongbg-=1.000=0=0=0 // don't automatically add -songbackground-
;
#KEYSOUNDS:;
#ATTACKS:;

//---------------dance-single - ----------------
#NOTES:
     dance-single:
     :
     Beginner:
     2:
     0.189790,0.277549,0.092688,0.000000,0.000000,129.000000,120.000000,9.000000,0.000000,0.000000,0.000000,0.189790,0.277549,0.092688,0.000000,0.000000,129.000000,120.000000,9.000000,0.000000,0.000000,0.000000:
0000
0000
0000
0000
,
0000
0000
0000
0000
,
0000
0000
0000
0000
,
0000
0000
0000
0000
,
0000
0000
0000
0000
,
0000
0000
0000
0000
,
0000
0000
0000
0000
,
0001
0001
1000
0000
,
0001
1000
0001
0000
,
1000
1000
0000
0000
,
0001
0001
0001
0000
0000
0000
0000
0000
,
1000
1000
0001
0001
,
1000
0001
1000
0000
,
0001
0001
1000
1000
,
0001
1000
0001
0000
,
1000
1000
0001
0000
,
0001
0001
1000
0000
,
1000
1000
0001
0001
,
1000
0001
1000
0001
,
1000
0000
1000
0000
,
0001
0000
0001
0000
,
1000
0000
1000
0000
,
0001
0000
0001
0000
,
1000
1000
0001
0001
,
1000
1000
0001
0001
,
1001
1001
0000
0000
,
1000
0001
1000
0000
,
0000
0001
0000
0001
,
0000
1000
0000
1000
,
0000
0001
0000
0001
,
0000
1000
0000
1000
,
0000
0001
0000
1000
,
0000
0001
0000
1000
,
1001
0000
0001
0000
,
1000
0000
0001
0000
,
1000
1000
0001
1000
,
0001
0001
1000
0001
,
1001
0000
1000
0000
,
0001
0000
1000
0000
,
0001
0001
1000
0001
,
1000
1000
0001
1000
,
1001
0001
0001
0000
,
1000
0001
1000
0000
,
1000
1000
1000
0000
,
0001
1000
0001
0000
,
1001
1001
0000
0000
,
1000
0001
1000
0000
,
1001
0000
0001
0000
,
1000
1000
0001
0001
,
1001
0000
0000
0000
;

//---------------dance-single - ----------------
#NOTES:
     dance-single:
     :
     Easy:
     2:
     0.192732,0.201854,0.061792,0.000000,0.000000,131.000000,125.000000,6.000000,0.000000,0.000000,0.000000,0.192732,0.201854,0.061792,0.000000,0.000000,131.000000,125.000000,6.000000,0.000000,0.000000,0.000000:
0000
0000
0000
0000
,
0000
0000
0000
0000
,
0000
0000
0000
0000
,
0000
0000
0000
0000
,
0000
0000
0000
0000
,
0000
0000
0000
0000
,
0000
0000
0000
0000
,
0010
0001
0001
0000
,
1000
1000
0100
0000
,
0001
1001
0000
0100
,
0010
0010
0000
1000
,
1000
0000
0010
0001
,
0001
0010
0010
0000
,
1000
0100
1000
0000
,
1000
0001
0001
0001
,
0010
0000
1000
0000
,
0100
0010
0010
0001
,
0001
0000
0100
0000
,
1001
0000
0000
0000
,
1000
0000
1000
0001
,
1000
0010
0010
0000
,
0001
0100
0001
0000
,
0001
1000
1000
1000
,
0010
0000
0100
0000
,
0100
0010
0010
0010
,
0110
0000
0000
0000
,
1000
0000
0000
0000
0000
0000
0000
0001
,
0001
1000
0000
1000
,
0010
0100
0000
0001
,
1000
1000
0001
0000
,
0100
1000
0001
0001
,
0010
0001
0000
1000
,
0010
0010
0100
0000
,
1001
0000
0010
0001
,
1000
0000
0100
1000
,
1000
0001
0010
0000
,
0100
0010
1000
0000
,
1001
0000
0010
1000
,
0001
0000
0100
0001
,
0001
1000
0010
0000
,
0100
0010
0001
0000
,
0010
0001
0100
0000
,
1000
0001
0001
1000
,
0010
0000
0001
0000
,
0001
1000
1000
0001
,
0010
0001
0000
0000
,
1000
0001
1000
1000
,
0100
0000
0010
0000
,
0001
0001
0010
0100
,
1001
0000
0000
0000
;

//---------------dance-single - ----------------
#NOTES:
     dance-single:
     :
     Medium:
     4:
     0.248639,0.277549,0.102987,0.000000,0.000000,169.000000,159.000000,10.000000,0.000000,0.000000,0.000000,0.248639,0.277549,0.102987,0.000000,0.000000,169.000000,159.000000,10.000000,0.000000,0.000000,0.000000:
0000
0000
0000
0000
,
0000
0000
0000
0000
,
0000
0000
0000
0000
,
0000
0000
0000
0000
,
0000
0000
0000
0000
,
0000
0000
0000
0000
,
0000
0000
0000
0000
,
0001
0001
1000
0100
,
1000
0001
0010
0010
,
0100
0110
1000
1000
,
0001
0001
0001
0000
0000
1000
0000
0000
,
1001
1000
0010
0010
,
1000
1000
1000
0000
0010
0000
0100
0000
,
0001
0000
0000
0100
0000
0000
0000
0000
,
0001
1000
0001
0100
,
1000
0100
0001
0001
,
1000
0010
0010
0100
,
0001
0001
1000
1000
,
0010
0010
0010
0000
0000
0000
1000
0000
,
1001
0100
0010
0010
,
0001
0001
0001
0000
0010
0000
0100
0000
,
1000
0000
0000
0100
0000
0000
0000
0000
,
1000
0001
1000
0100
,
1000
0100
0010
0001
,
1000
0001
0010
0100
,
1000
1001
0000
0000
,
0010
0000
0000
0000
0000
0000
0000
0100
,
0100
1000
0100
1000
,
0001
0010
0001
1000
,
0010
0100
0001
1000
,
0010
1000
0100
1000
,
0001
1001
0100
0001
,
1000
0010
0100
0100
,
0110
0001
0000
0001
,
0100
1000
0000
1000
,
0100
1000
0010
0100
,
0001
0010
0100
0010
,
0110
1000
0000
1000
,
0100
0001
0000
0001
,
0100
0001
0010
0100
,
1000
0010
0100
0010
,
0100
0001
1000
0100
,
1000
1000
1000
0010
,
0100
0001
1000
1000
,
0001
0001
0001
0010
,
1001
1001
1000
0100
,
1000
1000
0100
0010
,
0010
0001
0001
1000
,
0001
1000
0100
1000
,
1100
0000
0000
0000
;

//---------------dance-single - ----------------
#NOTES:
     dance-single:
     :
     Hard:
     5:
     0.307489,0.378476,0.185376,0.000000,0.030896,209.000000,191.000000,18.000000,0.000000,0.000000,0.000000,0.307489,0.378476,0.185376,0.000000,0.030896,209.000000,191.000000,18.000000,0.000000,0.000000,0.000000:
0000
0000
0000
0000
,
0000
0000
0000
0000
,
0000
0000
0000
0000
,
0000
0000
0000
0000
,
0000
0000
0000
0000
,
0000
0000
0000
0000
,
0000
0000
0000
0000
,
0100
0001
0010
0100
,
1000
0001
0010
0000
0001
1000
0100
0000
,
0010
0110
1000
0001
,
0100
0001
0100
0000
0000
0000
0000
0000
,
0010
0100
0001
0100
,
0010
0010
1000
0000
0100
0000
0001
0000
,
1000
0010
0001
1000
,
0010
1000
0100
0000
0001
0000
0010
0000
,
1001
0000
0100
0000
0001
0001
1000
0000
,
0001
0000
0010
0000
0100
1000
0100
0000
,
0010
1001
0001
1000
,
0010
0100
0010
0000
1000
0000
1010
0000
,
0010
0100
1000
0100
,
0010
0010
0001
0000
0100
0000
1000
0000
,
0001
0010
1000
1000
,
0010
0001
0100
0000
1000
0000
0010
0000
,
1001
0000
0100
0000
1000
1000
0001
0000
,
1000
0000
0010
0000
0100
0001
0100
0000
,
1100
0000
0101
0000
0010
1000
0010
0000
,
0001
0100
1000
0010
,
1001
0000
1000
0000
0010
0100
0010
0000
,
1000
0000
0010
0000
0100
0001
0100
0000
,
0010
1001
0100
0001
,
0010
0100
1000
0001
,
0100
0000
0110
0000
1000
0001
0010
0001
,
0100
0000
0101
0000
1000
0100
0010
0000
,
1001
1000
0001
0100
,
0010
1000
0001
1000
,
0010
0000
0100
0000
0010
0001
1000
0000
,
0100
0000
0001
0000
0010
0001
0100
0000
,
1001
0001
1000
0100
,
0010
0001
1000
0001
,
0011
0000
0100
0000
0010
1000
0100
0000
,
0100
0000
1000
0000
0010
0100
0001
0000
,
1000
0000
0000
0000
1000
0000
0000
0000
0001
0000
0000
0001
0000
0000
0100
0000
,
0000
0000
0100
0000
0010
0000
0000
0010
0000
0000
0000
0000
0000
0000
0000
0000
,
0001
0000
0000
0000
0001
0000
0000
0000
1000
0000
0000
1000
0000
0000
0010
0000
,
0000
0000
0010
0000
0100
0000
0000
0100
0000
0000
0000
0000
0000
0000
0000
0000
,
0100
0000
0000
0000
1001
0000
0000
0000
0010
0000
0000
0010
0000
0000
1000
0000
,
0000
0000
1000
0000
0001
0000
0000
0001
0000
0000
0000
0000
0000
0000
0000
0000
,
0100
0000
0110
0000
0010
1000
0001
0000
,
0010
0000
1001
0000
0001
1000
0100
0000
,
0110
0000
0000
0000
;

//---------------dance-single - ----------------
#NOTES:
     dance-single:
     :
     Challenge:
     7:
     0.329557,0.378476,0.113285,0.000000,0.046344,224.000000,213.000000,11.000000,0.000000,0.000000,0.000000,0.329557,0.378476,0.113285,0.000000,0.046344,224.000000,213.000000,11.000000,0.000000,0.000000,0.000000:
0000
0000
0000
0000
,
0000
0000
0000
0000
,
0000
0000
0000
0000
,
0000
0000
0000
0000
,
0000
0000
0000
0000
,
0000
0000
0000
0000
,
0000
0000
0000
0000
,
0100
0001
0010
0100
,
1000
0001
0010
0000
0001
1000
0100
0000
,
1000
0101
1000
0010
,
0100
0000
0001
0000
0100
0000
0000
0000
0000
0000
0001
0000
0000
1000
0000
0000
,
0010
0100
0001
0100
,
0010
0010
1000
0000
0100
1000
0001
1000
,
0100
0010
0001
1000
,
0010
1000
0100
0000
1000
1000
0100
0100
,
0010
0000
0000
0000
0000
0001
0000
1000
,
0000
0000
0010
0000
0000
0000
1000
0000
0000
0000
0001
0000
1000
0001
0000
0000
,
0100
1001
0001
1000
,
0010
0100
0010
0000
1000
0000
1010
0000
,
0010
0000
0100
0000
0001
0010
0100
0000
,
0010
0010
0001
0000
0100
0001
1000
0001
,
0100
0010
1000
0001
,
0010
0001
0100
0000
0001
0001
0100
0100
,
0010
0000
0000
0000
0000
1000
0000
0010
,
0000
0000
1000
0000
0000
0000
0001
0000
0000
0000
0001
0000
1000
0001
0000
0000
,
1001
0110
0000
0000
,
0001
0000
1000
0000
0010
0000
0010
0100
,
0001
0000
1000
0000
0001
0100
0010
0000
,
1000
0000
0010
0000
0100
0001
0100
0000
,
0010
0000
1001
0000
0100
0010
0001
0000
,
0010
0000
0100
0000
1000
0100
0001
0000
,
0100
0000
0110
0000
1000
0001
0010
0001
,
0100
0000
0101
0000
1000
0100
0010
0001
,
1000
1000
0001
0100
,
0010
0000
1000
0000
0001
0000
1000
0010
,
1000
0000
0100
0000
0010
0001
0100
0010
,
0100
0000
0001
0000
0010
0100
1000
1000
,
0001
0001
1000
0100
,
0010
0000
0001
0000
1000
0000
0001
0010
,
0001
0000
0100
0000
0010
1000
0100
0010
,
0100
0000
1000
0000
0010
0100
0001
0001
,
0100
0000
0000
0000
0001
0000
0000
0000
0010
0000
0000
0100
0000
0000
0010
0000
,
0000
0000
0100
0000
1000
0000
0000
0100
0000
0000
1000
0000
0000
0000
0001
0000
,
0100
0000
0100
0000
0001
0000
0000
0000
1000
0000
0000
1000
0000
0000
0010
0000
,
0000
0000
0100
0000
0001
0000
0000
0100
0000
0000
0001
0000
0000
0000
1000
0000
,
0100
0000
0000
0000
1001
0000
0000
0000
0010
0000
0000
0100
0000
0000
0010
0000
,
0000
0000
0100
0000
1000
0000
0000
0001
0000
0000
1000
0000
0000
0000
0010
0000
,
0100
0000
0110
0000
0010
1000
0001
0100
,
0010
0000
1000
0000
0001
1000
0100
0000
,
0011
0000
0000
0000
;
