#TITLE:Jump! Jump! Jump!;
#SUBTITLE:;
#ARTIST:From Super Mario Bros 3;
#TITLETRANSLIT:;
#SUBTITLETRANSLIT:;
#ARTISTTRANSLIT:;
#GENRE:;
#CREDIT:;
#BANNER:Jump! Jump! Jump!.png;
#BACKGROUND:Jump! Jump! Jump!-bg.png;
#LYRICSPATH:;
#CDTITLE:;
#MUSIC:Jump! Jump! Jump!.ogg;
#OFFSET:1.598492;
#SAMPLESTART:19.169998;
#SAMPLELENGTH:15.000000;
#LASTBEATHINT:1.480218;
#SELECTABLE:YES;
#DISPLAYBPM:150.000000;
#BPMS:0.000000=150.000000
;
#STOPS:
;
#BGCHANGES:3.500=Jump! Jump! Jump!.avi=1.000=1=0=1===CrossFade==,
232.000=Jump! Jump! Jump!-bg.png=1.000=1=0=1===CrossFade==,
99999=-nosongbg-=1.000=0=0=0 // don't automatically add -songbackground-
;
#KEYSOUNDS:;
#ATTACKS:;

//---------------dance-single - ----------------
#NOTES:
     dance-single:
     :
     Beginner:
     1:
     0.088729,0.155276,0.000000,0.000000,0.000000,56.000000,56.000000,0.000000,0.000000,0.000000,0.000000,0.088729,0.155276,0.000000,0.000000,0.000000,56.000000,56.000000,0.000000,0.000000,0.000000,0.000000:
0000
0000
0000
0000
,
0000
0000
0000
0000
,
0000
0000
0000
0000
,
0000
0000
0000
0000
,
0000
0000
0000
0000
,
0001
0000
0000
0000
,
0001
0000
1000
0000
,
1000
0000
0000
0000
,
0001
0000
0000
0000
,
1000
0000
0000
0000
,
1000
0000
0001
0000
,
0001
0000
0000
0000
,
1000
0000
0000
0000
,
1000
0000
0000
0000
,
0000
0000
0000
0000
,
0001
0000
0000
0000
,
1000
0000
0000
0000
,
1000
0000
0000
0000
,
0000
0000
0000
0000
,
1000
0000
0000
0000
,
0001
0000
0000
0000
,
1000
0000
1000
0000
,
0001
0000
0000
0000
,
0000
0000
0000
0000
,
0001
0000
0000
0000
,
1000
0000
0000
0000
,
1000
0000
0000
0000
,
0001
0000
1000
0000
,
1000
0000
0000
0000
,
0001
0000
0000
0000
,
1000
0000
0000
0000
,
0001
0000
0001
0000
,
0001
0000
1000
0000
,
1000
0000
0000
0000
,
0000
0000
0000
0000
,
1000
0000
0000
0000
,
0000
0000
0000
0000
,
0001
0000
0000
0000
,
0001
0000
1000
0000
,
1000
0000
0000
0000
,
0001
0000
0000
0000
,
1000
0000
0000
0000
,
1000
0000
0001
0000
,
0001
0000
0000
0000
,
1000
0000
0000
0000
,
0001
0000
0000
0000
,
0001
0000
1000
0000
,
1000
0000
0000
0000
,
0001
0000
0000
0000
,
1000
0000
0000
0000
,
1000
0000
0001
0000
,
0001
0000
0000
0000
,
1000
0000
0000
0000
,
1000
0000
0000
0000
,
0000
0000
0000
0000
,
0001
0000
0000
0000
,
1000
0000
0000
0000
;

//---------------dance-single - ----------------
#NOTES:
     dance-single:
     :
     Easy:
     2:
     0.126756,0.248442,0.044365,0.000000,0.000000,80.000000,76.000000,4.000000,0.000000,0.000000,0.000000,0.126756,0.248442,0.044365,0.000000,0.000000,80.000000,76.000000,4.000000,0.000000,0.000000,0.000000:
0000
0000
0000
0000
,
0000
0000
0000
0000
,
0000
0000
0000
0000
,
0000
0000
0000
0000
,
0000
0000
0000
0000
,
0001
0000
0000
0000
,
1000
0000
0000
0000
,
0001
0000
0000
0000
,
1000
0000
0000
0000
,
0010
0000
0000
0000
,
0100
0000
0000
0000
,
0010
0000
0000
0000
,
0100
0000
0000
0000
,
0001
0000
0000
0000
,
0001
0001
0000
0000
,
1000
0000
0000
0000
,
1000
1000
0000
0000
,
0010
0000
0000
0000
,
0010
0010
0000
0000
,
1000
1000
1000
0000
,
0001
0001
0001
0000
,
1000
0001
1000
0000
,
1001
0000
0000
0000
,
0000
0000
0000
0000
,
0001
0000
1000
0000
,
1000
0000
0001
0000
,
0001
0000
1000
0000
,
0010
0000
0000
0000
,
0001
0000
1000
0000
,
1000
0000
0001
0000
,
0010
0000
0100
0000
,
1001
0000
0000
0000
,
1001
0000
0000
0000
,
0010
0010
0000
0000
,
0100
0000
0000
0000
,
0010
0010
0000
0000
,
0110
0000
0000
0000
,
0001
0000
0000
0000
,
1000
0000
0000
0000
,
0001
0000
0000
0000
,
1000
0000
0000
0000
,
0010
0000
0000
0000
,
0100
0000
0000
0000
,
0010
0000
0000
0000
,
0100
0000
0000
0000
,
1000
0000
0001
0000
,
1000
0000
0001
0000
,
0001
0000
1000
0000
,
0001
0000
1000
0000
,
0010
0000
0010
0000
,
0100
0000
0100
0000
,
0010
0000
0010
0000
,
0100
0000
0100
0000
,
0001
0000
0000
0000
,
0100
0000
0000
0000
,
1000
0000
0000
0000
,
0010
0000
0000
0000
;

//---------------dance-single - ----------------
#NOTES:
     dance-single:
     :
     Medium:
     3:
     0.177458,0.279497,0.055456,0.000000,0.000000,112.000000,107.000000,5.000000,0.000000,0.000000,0.000000,0.177458,0.279497,0.055456,0.000000,0.000000,112.000000,107.000000,5.000000,0.000000,0.000000,0.000000:
0000
0000
0000
0000
,
0000
0000
0000
0000
,
0000
0000
0000
0000
,
0000
0000
0000
0000
,
0000
0000
0000
0000
,
0010
0000
0001
0000
,
0001
0000
1000
0000
,
0010
0000
1000
0000
,
1000
0000
0100
0000
,
0010
0000
0001
0000
,
1000
0000
0001
0000
,
0010
0000
1000
0000
,
1000
0000
0010
0000
,
0010
0000
0001
0001
,
0100
0000
1000
0000
,
0010
0000
1000
1000
,
1000
0000
0001
0010
,
0010
0000
0001
0001
,
0100
0000
0001
0000
,
1000
0010
0010
0000
,
0001
0100
0100
0000
,
1000
0010
1000
0000
,
0110
0000
0000
0000
,
0001
0000
0010
0000
,
0010
0000
0100
0000
,
1000
1000
0010
0000
,
1000
0000
0001
0100
,
0001
0000
0100
0000
,
0010
0000
0100
0000
,
0001
0001
0010
0000
,
1000
0100
1000
0000
,
1001
0000
0110
0000
,
1001
0000
0010
0100
,
0000
0000
1000
0000
,
0000
0000
0100
0000
,
0000
0000
0001
0000
,
1001
0000
0000
0000
,
0010
0000
0001
0000
,
0001
0000
1000
0000
,
0010
0000
1000
0000
,
0001
0000
0100
0000
,
0010
0000
0001
0000
,
1000
0000
0001
0000
,
0010
0000
1000
0000
,
1000
0000
0100
0000
,
0010
0000
0001
0000
,
0001
0000
1000
0000
,
0010
0000
1000
0000
,
0001
0000
0100
0000
,
0010
0000
0001
0000
,
1000
0000
0001
0000
,
0010
0000
1000
0000
,
1000
0000
0100
0000
,
0001
0000
0000
0000
,
0010
0000
0000
0000
,
1000
0000
0000
0000
,
0100
0000
0000
0000
;

//---------------dance-single - ----------------
#NOTES:
     dance-single:
     :
     Hard:
     5:
     0.296292,0.341607,0.066547,0.000000,0.000000,187.000000,181.000000,6.000000,0.000000,0.000000,0.000000,0.296292,0.341607,0.066547,0.000000,0.000000,187.000000,181.000000,6.000000,0.000000,0.000000,0.000000:
0000
0000
0000
0000
,
0000
0000
0000
0000
,
0000
0000
0000
0000
,
0000
0000
0000
0000
,
0001
0001
0000
0000
0000
1000
0000
1000
,
1000
0100
1000
0001
,
0010
0001
0001
0000
,
0001
0100
0001
1000
,
0100
1000
0010
0010
,
1000
0100
1000
0001
,
0010
1000
1000
0000
,
0001
0100
0001
1000
,
0100
1000
0100
0100
,
1000
0000
0000
1000
0000
0000
1000
0000
,
0010
0100
0010
1000
,
0001
0000
0000
0001
0000
0000
0001
0000
,
0001
0010
0010
0100
,
1000
0000
0000
1000
0000
0000
1000
0000
,
0010
0100
0010
0001
,
1000
0000
0001
1001
,
0010
0000
0100
0110
,
0001
0001
0010
0100
,
1000
0000
0001
0000
,
1001
0010
0010
0000
,
0100
1000
0001
0000
,
0100
0010
1000
0000
,
1000
0010
0100
0000
,
0010
0010
0100
1001
,
0100
0001
1000
0000
,
0100
0010
0001
0000
,
0001
0001
0100
0001
,
1000
0001
1001
1001
,
0010
0001
0100
1000
,
0010
0000
0001
0000
,
1000
1000
0001
0100
,
0010
0000
1000
0000
,
0001
0001
0000
0000
0000
0001
0000
1000
,
1000
0100
1000
0001
,
0010
0001
0001
0000
,
0001
0100
0001
1000
,
0100
0001
0010
0010
,
1000
0100
1000
0001
,
0010
1000
1000
0000
,
0001
0100
0001
1000
,
0100
1000
0010
0010
,
1000
0100
1000
0001
,
0010
0001
0001
0000
,
0001
0100
0001
1000
,
0100
0001
0010
0010
,
1000
0100
1000
0001
,
0010
1000
1000
0000
,
0001
0100
0001
1000
,
0100
1000
0010
0010
,
0100
0000
1000
0000
,
0010
0001
0100
0000
,
0100
0000
0001
0000
,
1000
0000
0000
0000
;

//---------------dance-single - ----------------
#NOTES:
     dance-single:
     :
     Challenge:
     7:
     0.440477,0.499102,0.244005,0.000000,0.000000,278.000000,256.000000,22.000000,0.000000,0.000000,0.000000,0.440477,0.499102,0.244005,0.000000,0.000000,278.000000,256.000000,22.000000,0.000000,0.000000,0.000000:
0000
0000
0000
0000
,
0000
0000
0000
0000
,
0000
0000
0000
0000
,
0000
0000
0000
0000
,
0010
0010
0000
0000
0000
1000
0000
0001
,
1000
0000
0001
0000
1000
0100
1000
0000
,
1000
1000
0001
0100
0010
0000
1001
0000
,
0001
0000
1000
0000
0001
0100
0001
0000
,
1000
0001
1000
0000
0001
0000
0101
0000
,
1000
0000
0001
0000
1000
0100
1000
0000
,
0001
0001
1000
0100
0010
0000
1001
0000
,
0001
0000
1000
0000
0001
0100
0001
0000
,
1000
0001
1000
0001
0001
0100
0010
0000
,
0100
0000
0000
0001
0000
0000
1001
0000
,
0010
1000
0010
1000
0000
0001
0100
0001
,
0001
0000
0000
0010
0000
0000
0100
0000
,
1000
0001
1000
0001
0000
0010
0100
0000
,
0100
0000
0000
1000
0000
0000
1001
0000
,
0010
0001
0010
0001
0000
1000
0100
1000
,
0001
1000
0100
0010
0000
0010
0100
1000
,
0001
0100
0010
1000
0000
0010
0100
0001
,
1000
0100
0010
0001
0000
0010
0100
1000
,
0001
0000
0000
0000
,
0100
0001
1000
0010
,
1000
0001
0100
0010
0000
0000
0100
0000
,
0010
1000
0001
0100
0000
0000
0010
0000
,
1000
0010
0100
0001
0000
0000
1000
0000
,
0010
0100
0010
0000
0110
0000
1001
0000
,
0001
1000
0100
0010
0000
0000
0100
0000
,
0010
0001
1000
0100
0000
0000
0010
0000
,
0001
1000
0100
0010
0000
0100
0010
0001
,
1000
1100
0001
0101
,
1001
1001
0110
1001
,
0010
0000
1000
0000
,
0001
0100
0100
0000
,
0010
0000
0001
0000
,
0100
0010
0000
0000
0000
1000
0000
0001
,
1000
0000
0001
0000
1000
0100
1000
0000
,
1000
1000
0001
0100
0010
0000
1001
0000
,
0001
0000
1000
0000
0001
0100
0001
0000
,
0001
1000
0001
0000
1000
0000
1100
0000
,
1000
0000
0001
0000
1000
0100
1000
0000
,
0001
0001
1000
0100
0010
0000
1001
0000
,
0001
0000
1000
0000
0001
0100
0001
0000
,
1000
0001
1000
0000
0001
0000
0101
0000
,
1000
0000
0001
0000
1000
0100
1000
0000
,
1000
1000
0001
0100
0010
0000
1001
0000
,
0001
0000
1000
0000
0001
0100
0001
0000
,
0001
1000
0001
0000
1000
0000
1100
0000
,
1000
0000
0001
0000
1000
0100
1000
0000
,
0001
0001
1000
0100
0010
0000
1001
0000
,
0001
0000
1000
0000
0001
0100
0001
0000
,
1000
0001
1000
0000
0001
0000
0101
0000
,
1000
0000
1000
0000
0010
0000
0000
0100
,
0000
0100
0000
0100
0000
1001
0000
0000
,
0001
0000
0001
0000
0010
0000
0000
0001
,
0000
1000
1000
0000
0000
0000
0000
0000
;
