#TITLE:In The Whirlpool;
#SUBTITLE:;
#ARTIST:From Pomp and Circumstance;
#TITLETRANSLIT:;
#SUBTITLETRANSLIT:;
#ARTISTTRANSLIT:;
#GENRE:;
#CREDIT:;
#BANNER:In the Whirlpool.png;
#BACKGROUND:In The Whirlpool-bg.png;
#LYRICSPATH:;
#CDTITLE:;
#MUSIC:In The Whirlpool.ogg;
#OFFSET:1.871817;
#SAMPLESTART:7.460001;
#SAMPLELENGTH:15.000000;
#LASTBEATHINT:1.846213;
#SELECTABLE:YES;
#DISPLAYBPM:128.000000;
#BPMS:0.000000=128.000000
;
#STOPS:
;
#BGCHANGES:3.500=In The Whirlpool.avi=1.000=1=0=1===CrossFade==,
204.000=In The Whirlpool-bg.png=1.000=1=0=1===CrossFade==,
99999=-nosongbg-=1.000=0=0=0 // don't automatically add -songbackground-
;
#KEYSOUNDS:;
#ATTACKS:;

//---------------dance-single - ----------------
#NOTES:
     dance-single:
     :
     Beginner:
     1:
     0.125805,0.186456,0.054360,0.000000,0.000000,81.000000,76.000000,5.000000,0.000000,0.000000,0.000000,0.125805,0.186456,0.054360,0.000000,0.000000,81.000000,76.000000,5.000000,0.000000,0.000000,0.000000:
0000
0000
0000
0000
,
0000
0000
0000
0000
,
0000
0000
0000
0000
,
0000
0000
0000
0000
,
0000
0000
0000
0000
,
1000
0000
0001
0000
,
0001
0000
1000
0000
,
0000
0000
0000
0000
,
0000
0000
0000
0000
,
0001
0000
1000
0000
,
1000
0000
0001
0000
,
1000
0000
0001
0000
,
1000
0000
0000
0000
,
0001
0001
0000
0000
,
0001
0001
0000
0000
,
1000
1000
0000
0000
,
1000
1000
0000
0000
,
0001
0001
0000
0000
,
1000
1000
0000
0000
,
0001
0001
0000
0000
,
1000
1000
0000
0000
,
0001
0000
1000
0000
,
0001
0000
0000
0000
,
1000
0000
0001
0000
,
1000
0000
1000
0000
,
0001
0000
1000
0000
,
0001
0000
0000
0001
0000
0000
0000
0000
,
1000
0000
0001
0000
,
0000
0000
0000
0000
,
1001
0000
0000
0000
,
0001
0000
0000
0000
,
1001
0000
0000
0000
,
1000
0000
0000
0000
,
1001
0000
0001
0000
,
0001
0000
0001
0000
,
1001
0000
1000
0000
,
1000
0000
1000
0000
,
0001
0000
0001
0000
,
1000
0000
1000
0000
,
0001
0000
0001
0000
,
1000
0000
1000
0000
,
0001
0000
0001
0000
,
1000
0000
1000
0000
,
0001
0000
1000
0000
,
0001
0000
0000
0000
,
1000
0000
0001
0000
,
1000
0000
0001
0000
,
1000
0000
0001
0000
,
1000
0000
0001
0000
,
1001
0000
0000
0000
;

//---------------dance-single - ----------------
#NOTES:
     dance-single:
     :
     Easy:
     2:
     0.161528,0.213092,0.043488,0.000000,0.000000,104.000000,100.000000,4.000000,0.000000,0.000000,0.000000,0.161528,0.213092,0.043488,0.000000,0.000000,104.000000,100.000000,4.000000,0.000000,0.000000,0.000000:
0000
0000
0000
0000
,
0000
0000
0000
0000
,
0000
0000
0000
0000
,
0000
0000
0000
0000
,
0000
0000
0000
0000
,
0010
0000
0001
0000
,
1000
0000
1001
0000
,
0000
0000
0000
0000
,
0000
0000
0000
0000
,
0001
0000
1000
0000
,
1000
0000
0100
0000
,
0001
0000
0001
0000
,
0010
0000
0000
0000
,
0010
0000
1000
1000
,
0010
0000
0001
0001
,
0001
0000
0001
0010
,
0010
0000
1000
0100
,
1000
0000
1000
1000
,
0010
0000
0001
0010
,
0001
0000
1000
1000
,
1000
0000
0001
0100
,
0001
0000
0010
0000
,
1000
0000
0000
0000
,
1000
0000
0010
0000
,
0100
0000
0010
0000
,
1000
0000
1000
0000
,
0010
0000
0000
0001
0000
0000
0000
0000
,
1000
0000
0001
0000
,
0110
0000
0000
0000
,
0001
0000
1000
0001
,
1000
0000
0010
0010
,
1000
0000
0001
1000
,
0001
0000
0010
0010
,
0010
0000
1000
0010
,
1000
0000
1000
0100
,
0100
0000
1000
1000
,
1000
0000
0001
0010
,
0010
0000
0001
0001
,
0010
0000
1001
0000
,
0001
0001
0010
0000
,
1000
1000
1000
0000
,
0001
0000
1000
0010
,
0010
0000
0100
0000
,
0001
0000
0001
0010
,
0001
0000
0000
0000
,
0010
0000
0000
0000
,
0100
0000
0000
0000
,
1000
1000
0000
0000
,
1000
0010
0000
0000
,
0110
0000
0000
0000
;

//---------------dance-single - ----------------
#NOTES:
     dance-single:
     :
     Medium:
     3:
     0.200356,0.213092,0.043488,0.000000,0.000000,129.000000,125.000000,4.000000,0.000000,0.000000,0.000000,0.200356,0.213092,0.043488,0.000000,0.000000,129.000000,125.000000,4.000000,0.000000,0.000000,0.000000:
0000
0000
0000
0000
,
0000
0000
0000
0000
,
0000
0000
0000
0000
,
0000
0000
0000
0000
,
0000
0000
0000
0000
,
1000
0000
0010
0100
,
0001
0000
1000
0000
,
0010
0000
0001
0000
,
1000
0000
0001
0000
,
0100
0000
1000
0010
,
1000
0000
0010
0000
,
0001
0000
0100
1000
,
1000
0000
0000
1001
,
0001
0000
0001
1000
,
1000
0000
0001
1000
,
0010
0000
0010
0100
,
0001
0001
1000
0000
,
0001
0000
1000
1000
,
0100
0000
0001
1000
,
0001
0000
0010
0100
,
0100
0001
1000
0000
,
0001
0001
0010
0000
,
0010
0100
0000
0000
,
1000
1000
0010
0000
,
0001
0000
0001
0000
,
0010
0010
1000
0000
,
0001
0000
0001
0001
0000
0000
0000
0000
,
0100
0000
0100
0000
,
1001
0000
0000
0000
,
1000
1000
0000
0000
1000
0000
1000
0000
,
0010
0000
0001
0010
,
0010
0010
0000
0000
0010
0000
0010
0000
,
1000
0000
0001
0001
,
1000
1000
0000
0000
1000
0000
0010
0000
,
0010
0000
0100
0010
,
0010
0010
0000
0000
0010
0000
1000
0000
,
1000
0000
0100
0001
,
1000
0000
0001
0100
,
0010
0000
1000
0000
,
0001
0001
1000
1000
,
0001
0000
0110
0000
,
0001
0000
1000
0010
,
1000
0000
0100
0000
,
0001
0000
0100
0010
,
0010
1000
1000
0000
,
0010
0000
0100
0001
,
0010
0000
0100
1000
,
0010
1000
0100
0000
,
0001
1000
0100
0000
,
1001
0000
0000
0000
;

//---------------dance-single - ----------------
#NOTES:
     dance-single:
     :
     Hard:
     5:
     0.262482,0.293002,0.097848,0.000000,0.021744,169.000000,160.000000,9.000000,0.000000,0.000000,0.000000,0.262482,0.293002,0.097848,0.000000,0.021744,169.000000,160.000000,9.000000,0.000000,0.000000,0.000000:
0000
0000
0000
0000
,
0000
0000
0000
0000
,
0000
0000
0000
0000
,
0000
0000
0000
0000
,
0000
0000
0000
0000
,
0001
0000
0000
0000
1000
1000
1000
0000
,
1001
0000
0110
0000
,
1000
0100
0001
0100
,
1000
0001
0100
0010
,
0100
0000
0000
0000
0000
0000
0000
0000
0001
0000
0000
0001
0000
0000
0001
0000
,
1000
0000
1001
0000
,
0010
0000
0000
0000
0000
0000
0000
0000
1000
0000
0000
1000
0000
0000
0001
0000
,
0001
0000
0000
0110
,
0010
0001
1000
0100
,
1000
0001
1000
0100
,
0010
0010
0001
1000
,
0001
0100
0100
0001
,
0010
0001
1000
0001
,
1000
0100
1000
0100
,
0010
0001
0001
1000
,
0010
0100
0010
1000
,
0001
0100
1000
0000
,
0100
0001
0000
0000
,
1000
0100
0001
0000
,
0010
0010
0100
0100
,
0010
0001
1000
0000
,
1000
0000
0001
0001
0000
1000
0000
0000
,
0010
1000
0001
0100
,
0010
0000
1001
0000
,
0010
0001
0000
0000
1000
0000
0010
0000
,
1000
0001
1000
1000
,
0100
0010
0000
0000
0001
0000
0100
0000
,
0001
0100
0010
1000
,
1000
0001
0000
0000
1000
0000
0010
0000
,
1000
0001
1000
0001
,
0001
0010
0000
0000
0001
0000
0100
0000
,
0001
1000
1001
1001
,
0010
0000
0000
0000
1000
1000
1000
0000
,
0001
0000
0110
0000
,
0010
0001
0010
1000
,
0100
0001
0100
1000
,
0001
0000
0000
0000
0000
0000
0000
0000
0001
0000
0000
0001
0000
0000
0001
0000
,
0100
0000
1001
0000
,
0010
0000
0000
0000
0000
0000
0000
0000
0001
0000
0000
1000
0000
0000
0001
0000
,
0001
0010
0100
1000
,
1000
0010
1000
0100
,
1000
0100
1000
0001
,
0100
0001
0010
0001
,
0010
0001
0010
0100
,
1000
0000
0000
0000
;

//---------------dance-single - ----------------
#NOTES:
     dance-single:
     :
     Challenge:
     7:
     0.372756,0.399548,0.173953,0.000000,0.065232,240.000000,224.000000,16.000000,0.000000,0.000000,0.000000,0.372756,0.399548,0.173953,0.000000,0.065232,240.000000,224.000000,16.000000,0.000000,0.000000,0.000000:
0000
0000
0000
0000
,
0000
0000
0000
0000
,
0000
0000
0000
0000
,
0000
0000
0000
0000
,
0000
0000
0000
0000
,
1000
0000
0000
0000
0100
0010
0001
0000
,
1000
0000
1100
0000
,
0010
0000
0010
0000
0001
1000
0001
0000
,
0010
0000
0010
0000
0001
0100
0001
0000
,
1000
0000
0000
0000
0000
0000
0000
0000
0001
0000
0000
0010
0000
0000
0100
0000
,
1000
0000
0110
0000
,
0001
0000
0000
0000
0000
0000
0000
0000
0001
0000
0000
1000
0000
0000
0001
0000
,
0100
0000
0010
1001
,
1000
0000
0100
0000
1000
0001
0001
0000
,
1000
0000
0010
0000
1000
0001
1000
0000
,
0010
0000
0110
0000
0001
0100
0001
0000
,
1000
0010
0100
0000
0001
0010
0100
0000
,
1000
0000
0100
0000
0010
0001
0001
0000
,
1000
0000
0001
0000
0100
0001
1000
0000
,
0010
0000
0110
0000
0010
0100
0001
0000
,
1000
0001
0100
0000
0001
1000
0100
0000
,
0010
0000
0001
0000
0001
1000
0100
1000
,
0001
0000
0101
0000
0010
0100
0010
0100
,
0010
0000
1000
0000
1000
0001
0100
0001
,
1000
0010
0100
0001
1000
0100
0010
0001
,
1000
0000
0010
0000
0100
0010
1000
0001
,
0100
0000
1001
1000
0000
0001
0000
0000
,
0010
0100
1000
0001
0100
0010
1000
0001
,
0010
0010
0110
1001
,
1000
0001
0000
0000
1000
0010
0001
0000
,
0010
0000
1000
0000
0001
0100
1000
0000
,
0100
0001
0000
0000
1000
0001
0010
0000
,
0001
0010
0100
0000
0010
0100
1000
0000
,
1000
0001
1000
0000
1000
0010
0001
0000
,
0010
0000
0100
0000
0001
0100
1000
0000
,
0100
0001
1000
0000
1000
0001
0010
0000
,
0001
0010
0100
1000
0010
0100
0010
0000
,
1000
0000
1000
0000
0100
0010
0001
0000
,
1000
0100
1100
0000
,
0010
1001
0100
1001
,
0010
1000
0010
0100
0010
0000
0110
0000
,
1000
0000
0000
0000
0001
0000
0000
0000
0001
0000
0000
0010
0000
0000
0100
0000
,
1000
0001
0110
0000
,
1001
0000
0000
0000
0100
0000
0000
0000
0001
0000
0000
1000
0000
0000
0001
0000
,
0010
0000
0001
0100
0000
0000
0100
0000
,
0010
0000
0000
0010
0000
0000
0010
0000
0100
0000
0000
0100
0000
0000
0100
0000
,
0010
0000
0000
1000
0000
0000
0010
0000
0100
0000
0000
0001
0000
0000
0100
0000
,
0001
0000
0000
1000
0000
0000
0010
0000
1000
0000
0000
0100
0000
0000
0010
0000
,
0001
0000
0000
0100
0000
0000
0010
0000
1000
0000
0000
0100
0000
0000
0010
0000
,
0110
0000
0000
0000
;
