#TITLE:Hop, Mario!;
#SUBTITLE:;
#ARTIST:From Super Mario World;
#TITLETRANSLIT:;
#SUBTITLETRANSLIT:;
#ARTISTTRANSLIT:;
#GENRE:;
#CREDIT:;
#BANNER:Hop Mario.png;
#BACKGROUND:Hop Mario-bg.png;
#LYRICSPATH:;
#CDTITLE:;
#MUSIC:Hop Mario.ogg;
#OFFSET:1.819644;
#SAMPLESTART:7.230000;
#SAMPLELENGTH:15.000000;
#LASTBEATHINT:1.789127;
#SELECTABLE:YES;
#DISPLAYBPM:132.000000;
#BPMS:0.000000=132.000000
;
#STOPS:
;
#BGCHANGES:3.750=Hop Mario.avi=1.000=1=0=1===CrossFade==,
208.000=Hop Mario-bg.png=1.000=1=0=1===CrossFade==,
99999=-nosongbg-=1.000=0=0=0 // don't automatically add -songbackground-
;
#KEYSOUNDS:;
#ATTACKS:;

//---------------dance-single - ----------------
#NOTES:
     dance-single:
     :
     Beginner:
     1:
     0.096752,0.163854,0.000000,0.000000,0.000000,62.000000,62.000000,0.000000,0.000000,0.000000,0.000000,0.096752,0.163854,0.000000,0.000000,0.000000,62.000000,62.000000,0.000000,0.000000,0.000000,0.000000:
0000
0000
0000
0000
,
0000
0000
0000
0000
,
0000
0000
0000
0000
,
0000
0000
0000
0000
,
0000
0000
0000
0000
,
1000
0000
0000
0000
,
0001
0000
0000
0000
,
0001
0000
0000
0000
,
1000
0000
0000
0000
,
1000
0000
0000
0000
,
0001
0000
0001
0000
,
0001
0000
0000
0000
,
1000
0000
0001
0000
,
0001
0000
0000
0000
,
1000
0000
0000
0000
,
0001
0000
1000
0000
,
1000
0000
0000
0000
,
1000
0000
0000
0000
,
0001
0000
0000
0000
,
1000
0000
1000
0000
,
0001
0000
0000
0000
,
0001
0000
0001
0000
,
1000
0000
0000
0000
,
1000
0000
1000
0000
,
0001
0000
0000
0000
,
1000
0000
0000
0000
,
0000
0000
0000
0000
,
0001
0000
0000
0000
,
1000
0000
0000
0000
,
0001
0000
0000
0000
,
0000
0000
0000
0000
,
1000
0000
0000
0000
,
0001
0001
0001
0000
,
1000
0000
1000
0000
,
0001
0000
0000
0000
,
0001
0000
0001
0000
,
1000
0000
0000
0000
,
1000
0000
1000
0000
,
0001
0000
0000
0000
,
0001
0000
0001
0000
,
1000
0000
0001
0000
,
1000
0000
0000
0000
,
0001
0000
1000
0000
,
0001
0000
0000
0000
,
1000
0000
0001
0000
,
1000
0000
0001
0000
,
0001
0000
0001
0000
,
1000
0000
0000
0000
,
0001
0000
0000
0000
,
1000
0000
0000
0001
,
0001
0000
0000
0000
;

//---------------dance-single - ----------------
#NOTES:
     dance-single:
     :
     Easy:
     2:
     0.120159,0.163854,0.021847,0.000000,0.000000,77.000000,75.000000,2.000000,0.000000,0.000000,0.000000,0.120159,0.163854,0.021847,0.000000,0.000000,77.000000,75.000000,2.000000,0.000000,0.000000,0.000000:
0000
0000
0000
0000
,
0000
0000
0000
0000
,
0000
0000
0000
0000
,
0000
0000
0000
0000
,
0000
0000
0000
0000
,
0010
0000
0000
0000
,
1000
0000
1000
0000
,
0001
0000
0000
0000
,
0001
0000
0010
0000
,
0010
0000
0000
0000
,
1000
0000
0001
0000
,
0100
0000
0000
0000
,
1000
1000
1000
0000
,
0001
0000
0000
0000
,
1000
0000
1000
0000
,
0001
0001
0001
0000
,
1000
0000
0010
0000
,
1000
0000
0000
0000
,
0001
0000
0001
0000
,
0010
0000
0010
0000
,
0100
0000
0000
0000
,
1000
0000
0000
0000
,
0001
0000
1000
0000
,
0010
0000
0000
0000
,
0001
0001
0010
0000
,
0001
0000
0000
0000
,
0100
0000
0000
0000
,
1000
0000
0000
0000
,
1001
0000
0000
0000
,
0001
0000
0010
0000
,
0100
0000
0000
0000
,
1000
0000
0010
0000
,
1000
0000
1000
1000
,
1000
0000
0000
0000
,
0010
0000
0001
0001
,
0001
0000
0000
0000
,
0010
0000
1000
1000
,
1000
0000
0000
0000
,
0010
0000
0001
0001
,
0001
0000
0000
0000
,
0100
0000
0010
0000
,
0100
0000
0000
0000
,
1000
0000
0001
0000
,
1000
0000
0000
0000
,
0010
0000
0010
0000
,
0010
0000
0000
0000
,
1000
1000
0010
0000
,
0001
0000
0000
0000
,
0100
0000
0000
0000
,
1000
0000
0000
0000
,
1001
0000
0000
0000
;

//---------------dance-single - ----------------
#NOTES:
     dance-single:
     :
     Medium:
     3:
     0.223153,0.245781,0.076465,0.000000,0.005462,143.000000,136.000000,7.000000,0.000000,0.000000,0.000000,0.223153,0.245781,0.076465,0.000000,0.005462,143.000000,136.000000,7.000000,0.000000,0.000000,0.000000:
0000
0000
0000
0000
,
0000
0000
0000
0000
,
0000
0000
0000
0000
,
0000
0000
0000
0000
,
0000
0000
0000
0000
,
0001
0000
1000
1000
,
0001
0010
0010
0000
,
0001
0000
0100
1000
,
0001
0001
0010
0000
,
1000
0000
0001
0001
,
0010
0010
0100
0000
,
1000
1000
0000
0000
1000
0000
0000
0000
,
0001
0001
1001
0000
,
1000
0100
0010
0000
,
0100
0010
0001
0000
,
1000
1000
0001
0001
,
0100
0000
0100
0001
,
0001
0100
0010
0000
,
0100
0010
1000
0000
,
0010
0010
1000
1000
,
1001
0000
0001
0001
,
1000
0000
0001
0010
,
0100
0000
0001
0001
,
1000
0000
0100
0010
,
0010
0000
0001
1000
,
0010
0100
0001
0000
,
0100
0001
1000
0000
,
0010
0100
1000
0000
,
0110
0000
1001
0000
,
0010
1000
0001
0000
,
1000
0001
1000
0000
,
0010
0001
1000
0000
,
0010
0010
0100
0100
,
0001
0000
1000
0100
,
0010
0010
0001
0000
,
1000
0000
0001
0100
,
0010
0010
1000
0000
,
0001
0000
1000
0100
,
0010
0010
0001
0000
,
1000
0000
0001
0100
,
0001
0000
0110
0000
,
1000
0000
1000
1000
,
0001
0010
0001
0000
,
0010
0000
0100
1000
,
0001
1000
0010
0000
,
0001
0000
0001
0001
,
0010
0001
0100
0000
,
1000
1000
0000
0000
1000
0000
0001
0000
,
1001
0000
0000
0000
,
0110
0000
0000
0000
0000
0000
0000
0000
0000
0000
0001
0000
0000
0001
0000
0000
,
0001
0000
0000
0000
;

//---------------dance-single - ----------------
#NOTES:
     dance-single:
     :
     Hard:
     5:
     0.265287,0.300399,0.109236,0.000000,0.038233,170.000000,160.000000,10.000000,0.000000,0.000000,0.000000,0.265287,0.300399,0.109236,0.000000,0.038233,170.000000,160.000000,10.000000,0.000000,0.000000,0.000000:
0000
0000
0000
0000
,
0000
0000
0000
0000
,
0000
0000
0000
0000
,
0000
0000
0000
0000
,
0000
0000
0000
0000
,
1000
1000
0010
0010
,
0100
0001
0001
0000
,
1000
0001
0010
0010
,
0100
1000
0001
0000
,
0001
0001
0010
0010
,
0100
0010
0100
0000
,
1000
0001
0000
0000
1000
0000
0010
0000
,
0100
0001
1000
1001
,
0010
0001
1000
1000
,
0001
1000
0100
1000
,
1000
0100
0010
0001
,
0010
0000
0100
1001
,
0010
1000
0001
0001
,
1000
0001
0100
0001
,
1000
0010
0010
0100
,
0001
0000
1000
0001
,
0100
0000
1001
0010
,
0001
0010
0100
0110
,
1000
0000
1001
0010
,
1000
0001
1000
1001
,
0001
0000
0000
0001
0000
0000
0001
0000
0000
0000
0000
0000
0001
0000
0000
0000
,
0010
0000
0000
0010
0000
0000
0010
0000
0000
0000
0000
0000
0001
0000
0000
0000
,
1000
0000
0000
1000
0000
0000
1000
0000
0000
0000
0000
0000
1000
0000
0000
0000
,
0100
0000
0010
0000
,
0001
0000
0000
0001
0000
0000
0001
0000
0000
0000
0000
0000
0100
0000
0000
0000
,
0010
0000
0000
0010
0000
0000
0010
0000
0000
0000
0000
0000
0010
0000
0000
0000
,
1000
0000
0000
1000
0000
0000
1000
0000
0000
0000
0000
0000
0001
0000
0000
0000
,
1000
0001
0100
0010
,
1000
0001
1000
0010
,
1000
0000
1000
0001
,
0001
1000
0001
0010
,
0001
0000
0001
1000
,
1000
0001
1000
0010
,
1000
0000
1000
0001
,
0001
1000
0001
0010
,
1001
0000
0101
0000
,
0010
1000
0010
0100
,
0100
0001
0010
0000
,
0001
1000
0010
0100
,
0001
0001
0010
0000
,
0010
0001
0010
0100
,
1000
0010
0100
0000
,
0100
0001
0000
0000
1000
0000
0010
0000
,
0110
0000
0000
0000
,
1001
0000
0000
0000
0000
0000
0000
0000
0000
0000
0001
0000
0000
1000
0000
0000
,
0100
0000
0000
0000
;

//---------------dance-single - ----------------
#NOTES:
     dance-single:
     :
     Challenge:
     7:
     0.365160,0.409635,0.196625,0.000000,0.169316,234.000000,216.000000,18.000000,0.000000,0.000000,0.000000,0.365160,0.409635,0.196625,0.000000,0.169316,234.000000,216.000000,18.000000,0.000000,0.000000,0.000000:
0000
0000
0000
0000
,
0000
0000
0000
0000
,
0000
0000
0000
0000
,
0000
0000
0000
0000
,
0000
0000
0000
0000
,
1000
0000
0000
0001
0000
0000
0100
0000
0001
0000
0000
1000
0000
0000
0100
0000
,
1000
0000
0000
0001
0000
0000
1000
0000
0001
0000
0000
0000
0100
0000
0000
0000
,
0001
0000
0000
0001
0000
0000
0100
0000
0010
0000
0000
1000
0000
0000
0100
0000
,
1000
0000
0000
0010
0000
0000
0100
0000
0001
0000
0000
0000
0100
0000
0000
0000
,
0001
0000
0000
1000
0000
0000
0100
0000
1000
0000
0000
0001
0000
0000
0100
0000
,
0010
0000
0000
1000
0000
0000
0100
0000
0010
0000
0000
0000
0001
0000
0000
0000
,
1000
1001
0000
0000
0010
0000
0100
0000
,
0001
0000
1000
0000
0010
1000
0100
0000
,
1000
1000
0010
1000
,
0001
0000
0001
0000
0100
0100
0001
0000
,
0100
1001
0010
1001
,
0100
0000
0110
0000
0001
0001
1000
0000
,
0001
0001
0010
0001
,
1000
0000
1000
0000
0100
0100
1000
0000
,
0010
0000
1000
0100
0010
0000
0000
0100
,
1000
0001
0001
0100
,
0010
0100
0010
0000
1000
0001
1000
0000
,
0010
0000
0000
0010
0000
0000
0100
0000
0001
0000
0000
0000
0101
0000
0000
0000
,
0010
1000
0010
0000
0100
0001
0100
0000
,
0001
0000
0000
1000
0000
0000
0100
0000
1000
0000
0000
0000
1100
0000
0000
0000
,
0001
0000
0000
0001
0000
0000
0010
0000
0000
0100
0000
0000
1000
0000
1000
0000
,
0100
0000
0000
0010
0000
0000
0001
0000
0000
0000
0000
0000
0000
0000
0000
0000
,
1000
0000
0000
1000
0000
0000
0010
0000
0000
0100
0000
0000
0001
0000
0001
0000
,
1000
0000
0000
0000
,
0001
0000
0000
1000
0000
0000
0010
0000
0000
0100
0000
0000
0001
0000
1000
0000
,
0100
0000
0000
0010
0000
0000
0001
0000
0000
0000
0000
0000
0110
0000
0000
0000
,
1000
0000
0000
0001
0000
0000
0010
0000
0000
0100
0000
0000
1000
0000
0001
0000
,
1000
0010
1000
0010
0100
0001
0100
0001
,
1000
0001
0100
0001
,
1000
0000
0010
0000
1010
0000
0001
1000
,
0001
1000
0100
1000
,
0001
0000
0010
0000
0011
0000
1000
0001
,
1000
0001
0100
0001
,
1000
0000
0010
0000
1010
0000
0001
1000
,
0001
1000
0100
1000
,
1001
0000
0110
0001
,
1000
0000
0000
0001
0000
0000
0010
0000
0001
0000
0000
1000
0000
0000
0100
0000
,
1000
0000
0000
0001
0000
0000
0010
0000
0001
0000
0000
0000
0100
0000
0000
0000
,
0001
0000
0000
0010
0000
0000
0100
0000
0010
0000
0000
0100
0000
0000
1000
0000
,
0100
0000
0000
0010
0000
0000
0100
0000
1000
0000
0000
0000
0001
0000
0000
0000
,
0001
0000
0000
1000
0000
0000
0010
0000
1000
0000
0000
0001
0000
0000
0100
0000
,
0001
0000
0000
1000
0000
0000
0100
0000
0010
0000
0000
0000
0100
0000
0000
0000
,
1000
1100
0000
0000
0001
0000
0100
0000
,
0101
0000
0000
0000
,
0110
0000
0000
0000
0000
0000
0000
0000
0000
0000
1010
0000
0000
0011
0000
0000
,
1001
0000
0000
0000
;
