#TITLE:Here We Go;
#SUBTITLE:;
#ARTIST:From Super Mario Bros;
#TITLETRANSLIT:;
#SUBTITLETRANSLIT:;
#ARTISTTRANSLIT:;
#GENRE:;
#CREDIT:;
#BANNER:Here We Go.png;
#BACKGROUND:Here We Go-bg.png;
#LYRICSPATH:;
#CDTITLE:;
#MUSIC:Here We Go.ogg;
#OFFSET:0.010580;
#SAMPLESTART:2.340000;
#SAMPLELENGTH:15.000000;
#SELECTABLE:YES;
#DISPLAYBPM:100.000000;
#BPMS:0.000000=100.000000
;
#STOPS:
;
#BGCHANGES:-0.300=Here We Go.avi=1.000=0=0=0=StretchNoLoop==crossfade==,
156.000=Here We Go-bg.png=1.000=1=0=1===CrossFade==,
99999=-nosongbg-=1.000=0=0=0 // don't automatically add -songbackground-
;
#KEYSOUNDS:;
#ATTACKS:;

//---------------dance-single - ----------------
#NOTES:
     dance-single:
     :
     Challenge:
     7:
     0.305329,0.274167,0.134879,0.000000,0.072627,206.000000,193.000000,13.000000,0.000000,0.000000,0.000000,0.305329,0.274167,0.134879,0.000000,0.072627,206.000000,193.000000,13.000000,0.000000,0.000000,0.000000:
0000
0000
0000
0000
,
1000
0000
0010
0000
1000
0000
0001
0001
,
1000
0000
0100
0000
0010
0001
0100
0000
,
0001
0000
0010
0000
0001
0000
1000
1000
,
1000
0000
0100
0000
0010
0001
1000
0000
,
1000
0000
0010
0000
0100
0000
0001
0100
,
1000
0000
0100
0000
0001
0001
0100
0000
,
0001
0000
0010
0000
0100
0000
1000
0100
,
0100
1000
1100
0000
,
1000
0000
0000
1000
0000
0000
1000
0000
1000
0000
0000
0001
0000
0000
1000
0000
,
0001
0000
0000
0001
0000
0000
0001
0000
0001
0000
0000
1000
0000
0000
0001
0000
,
1001
1100
0010
0001
,
1000
0000
1000
0000
0001
0000
0000
0100
0000
0000
0100
0000
0001
0000
0000
0000
,
0010
0000
0010
0000
0100
0000
0000
0010
0000
0000
0001
0000
0100
0000
0000
0000
,
0001
0000
0001
0000
1000
0000
0000
0100
0000
0000
0100
0000
1000
0000
0000
0000
,
0010
0110
0000
0000
0000
0000
1001
0000
,
1000
0000
0001
0000
0100
0000
0001
0010
,
0100
0000
0010
0000
0001
0001
0100
0000
,
0010
0000
1001
0000
0100
0000
0001
0010
,
0001
0000
0100
0000
0001
1000
0001
1000
,
1000
0000
0000
1000
0000
0000
1000
0000
0000
0000
0010
0000
1010
0000
0000
0000
,
0100
0000
0000
0100
0000
0000
0100
0000
0000
0000
0001
0000
0101
0000
0000
0000
,
0001
0000
0000
0001
0000
0000
0001
0000
0000
0000
0010
0000
0011
0000
0000
0000
,
0010
0000
0000
0010
0000
0000
0010
0000
0000
0000
0100
0000
0110
0000
0000
0000
,
1000
0000
1000
1000
0010
1000
0010
0000
,
0100
0000
0100
0100
0001
0100
0001
0000
,
0001
0000
0001
0001
0010
0001
0010
0000
,
0010
0000
0010
0010
0100
0010
0100
0000
,
1000
0000
1000
0000
0001
1000
0100
0000
,
0010
0000
0100
0000
1000
0010
0100
0000
,
0001
0000
0001
0000
1000
0001
0100
0000
,
0001
1000
0100
0010
0001
0000
0110
0000
,
1000
0000
0010
0000
1000
0001
0001
0010
,
0100
0000
0010
0000
0001
1000
0100
1000
,
0001
0000
0010
0000
0001
1000
1000
0010
,
0100
0001
0101
0000
,
1000
0000
0000
1000
0000
0000
0010
0000
1000
0000
0000
0001
0000
0000
0100
0000
,
0010
0000
0000
1000
0000
0000
0001
0000
0100
0000
0000
0000
0101
0000
0000
0000
;

//---------------dance-single - ----------------
#NOTES:
     dance-single:
     :
     Beginner:
     1:
     0.054841,0.077815,0.000000,0.000000,0.000000,37.000000,37.000000,0.000000,0.000000,0.000000,0.000000,0.054841,0.077815,0.000000,0.000000,0.000000,37.000000,37.000000,0.000000,0.000000,0.000000,0.000000:
0000
0000
0000
0000
,
0000
0000
0000
0000
,
0000
0000
0000
0000
,
0000
0000
0000
0000
,
0000
0000
0000
0000
,
1000
0000
0000
0000
,
0000
0000
0000
0000
,
0001
0000
0000
0000
,
0001
0000
0000
0000
,
1000
0000
0000
0000
,
1000
0000
0000
0000
,
0001
0000
0000
0000
,
1000
0000
0000
0000
,
0001
0000
0001
0000
,
0001
0000
0000
0000
,
1000
0000
0000
0000
,
1000
0000
0000
0000
,
0000
0000
0000
0000
,
0001
0000
0000
0000
,
0001
0000
0001
0000
,
0001
0000
0000
0000
,
1000
0000
0000
0000
,
1000
0000
0000
0000
,
0001
0000
0000
0000
,
0001
0000
0000
0000
,
1000
0000
0000
0000
,
0001
0000
0000
0000
,
0001
0000
1000
0000
,
1000
0000
0000
0000
,
0001
0000
0000
0000
,
1000
0000
0000
0000
,
1000
0000
0001
0000
,
0001
0000
0000
0000
,
0000
0000
0000
0000
,
1000
0000
1000
0000
,
0001
0000
0000
0000
,
0001
0000
0001
0000
,
1000
0000
1000
0000
;

//---------------dance-single - ----------------
#NOTES:
     dance-single:
     :
     Easy:
     1:
     0.069663,0.097917,0.000000,0.000000,0.000000,47.000000,47.000000,0.000000,0.000000,0.000000,0.000000,0.069663,0.097917,0.000000,0.000000,0.000000,47.000000,47.000000,0.000000,0.000000,0.000000,0.000000:
0000
0000
0000
0000
,
0001
0000
0000
0000
,
0000
0000
0000
0000
,
1000
0000
0000
0000
,
0000
0000
0000
0000
,
0001
0000
0001
0000
,
0000
0000
0000
0000
,
1000
0000
1000
0000
,
0000
0000
0001
0000
,
1000
0000
0000
0000
,
0001
0000
0000
0000
,
0001
0000
1000
1000
,
1000
0000
0000
0000
,
0010
0000
0000
0000
,
0001
0000
0000
0000
,
1000
0000
0000
0000
,
0001
0000
0010
0000
,
0000
0000
0000
0000
,
1000
0000
0010
0000
,
1000
0000
0000
0000
,
1000
0000
0001
0000
,
0000
0000
0000
0000
,
0001
0000
1000
0000
,
0001
0000
0000
0000
,
1000
0000
0001
0001
,
0000
0000
0000
0000
,
0001
0000
1000
1000
,
1000
0000
0000
0000
,
0001
0001
0000
0000
,
0010
0000
0000
0000
,
1000
1000
0000
0000
,
0100
0000
0000
0000
,
0010
0000
0001
0000
,
0000
0000
0000
0000
,
0010
0000
1000
0000
,
0000
0000
1000
0000
,
0010
0000
0000
0000
,
0001
0000
0000
0100
;

//---------------dance-single - ----------------
#NOTES:
     dance-single:
     :
     Medium:
     2:
     0.163040,0.176250,0.051876,0.000000,0.000000,110.000000,105.000000,5.000000,0.000000,0.000000,0.000000,0.163040,0.176250,0.051876,0.000000,0.000000,110.000000,105.000000,5.000000,0.000000,0.000000,0.000000:
0000
0000
0000
0000
,
0010
0000
1000
0000
,
0100
0000
0010
0000
,
0010
0000
0001
0000
,
1000
0000
0010
0010
,
0010
0000
1000
1000
,
1000
0010
0010
0000
,
0010
0000
0001
0001
,
1000
1000
0100
0000
,
0100
0000
0001
0000
,
0100
0000
1000
0000
,
0110
0000
0001
1000
,
1000
0001
0001
0000
,
0001
0000
1000
0001
,
0001
1000
1000
0000
,
0100
0100
0000
0000
0000
0000
0001
0000
,
0010
1000
1000
0000
,
0100
0000
0010
0010
,
0010
0100
1000
0000
,
0001
0001
0010
0000
,
1000
0000
0001
0001
,
1000
1000
1000
0000
,
0001
0000
1000
1000
,
0010
0010
0001
0000
,
1000
0000
1000
0100
,
0100
1000
1000
0000
,
0001
0000
0001
0100
,
0010
0010
0100
0000
,
0000
0010
1000
1000
,
0000
0100
0010
0010
,
0000
0010
0001
0001
,
0001
0000
0001
1001
,
0100
1000
1000
0000
,
0010
0000
0010
0010
,
0100
0001
0001
0000
,
0001
0001
0100
0000
,
0110
0000
1001
0000
,
1000
0000
0010
0110
;

//---------------dance-single - ----------------
#NOTES:
     dance-single:
     :
     Hard:
     4:
     0.214916,0.235000,0.114128,0.000000,0.000000,145.000000,134.000000,11.000000,0.000000,0.000000,0.000000,0.214916,0.235000,0.114128,0.000000,0.000000,145.000000,134.000000,11.000000,0.000000,0.000000,0.000000:
0000
0000
0000
0000
,
0100
0001
0001
1000
,
0001
1000
0010
0000
,
0100
1000
1000
0001
,
0001
0100
0010
0000
,
1000
0001
0001
1000
,
0001
1000
0001
0000
,
0100
0010
1000
0001
,
0010
0100
0110
0000
,
1000
0000
0110
0000
,
0001
0000
0110
0000
,
1001
0110
1000
1000
,
0010
1000
0001
1000
,
0100
0010
0010
0000
,
0010
0001
1000
0001
,
0100
0010
0000
0000
0000
0000
1000
0000
,
0100
1000
0001
1000
,
0100
1000
0010
0000
,
0100
1000
0001
0001
,
1000
0001
0100
0000
,
1000
1000
0010
0100
,
0001
1000
0100
1000
,
0001
0001
0010
0100
,
1000
1000
1001
0000
,
1000
1000
0001
0100
,
0001
1000
0010
1000
,
0001
0001
1000
0100
,
1000
0001
1001
0000
,
0010
0010
0010
0000
0000
0000
1000
0000
,
1000
1000
1000
0000
0000
0000
0010
0000
,
0010
0010
0010
0000
0000
0000
0001
0000
,
0001
0001
0001
0001
0001
0000
1001
0000
,
0010
1000
0001
1000
,
0100
0100
0010
0000
,
0010
0001
1000
0001
,
0010
0100
0110
0000
,
1000
0000
1100
0000
,
0010
0010
0010
0010
0010
0000
1001
0000
;
