#TITLE:Hammer Dance;
#SUBTITLE:;
#ARTIST:From Super Mario Bros 3;
#TITLETRANSLIT:;
#SUBTITLETRANSLIT:;
#ARTISTTRANSLIT:;
#GENRE:;
#CREDIT:;
#BANNER:Hammer Dance.png;
#BACKGROUND:Hammer Dance-bg.png;
#LYRICSPATH:;
#CDTITLE:;
#MUSIC:Hammer Dance.ogg;
#OFFSET:1.550594;
#SAMPLESTART:63.455006;
#SAMPLELENGTH:14.880000;
#LASTBEATHINT:1.405821;
#SELECTABLE:YES;
#DISPLAYBPM:155.000000;
#BPMS:0.000000=155.000000
;
#STOPS:
;
#BGCHANGES:3.500=Hammer Dance.avi=1.000=1=0=1===CrossFade==,
268.000=Hammer Dance-bg.png=1.000=1=0=1===CrossFade==,
99999=-nosongbg-=1.000=0=0=0 // don't automatically add -songbackground-
;
#KEYSOUNDS:;
#ATTACKS:;

//---------------dance-single - ----------------
#NOTES:
     dance-single:
     :
     Beginner:
     1:
     0.133447,0.251723,0.049165,0.000000,0.000000,95.000000,90.000000,5.000000,0.000000,0.000000,0.000000,0.133447,0.251723,0.049165,0.000000,0.000000,95.000000,90.000000,5.000000,0.000000,0.000000,0.000000:
0000
0000
0000
0000
,
0000
0000
0000
0000
,
0000
0000
0000
0000
,
0000
0000
0000
0000
,
0000
0000
0000
0000
,
0000
0000
0000
0000
,
0000
0000
0000
0000
,
0000
0000
0000
0000
,
0000
0000
0000
0000
,
0000
0000
0000
0000
,
0001
0000
1000
0000
,
0001
0000
0000
0000
,
1000
0000
1000
0000
,
0001
0000
0000
0000
,
1000
0000
0001
0000
,
1000
0000
0000
0000
,
0001
0000
0001
0000
,
1000
0000
0000
0000
,
1000
0000
1000
0000
,
0001
0000
0001
0000
,
1000
0000
1000
0000
,
0001
0000
0001
0000
,
1000
0000
0001
0000
,
1000
0000
0001
0000
,
1000
1000
0001
0001
,
1001
0000
0000
0000
,
1000
0000
0001
0000
,
1000
0000
0000
0000
,
1000
0000
1000
0000
,
0001
0000
0000
0000
,
1000
0000
0001
0000
,
1000
0000
0000
0000
,
0001
0000
1000
0000
,
1001
0000
0000
0000
,
1000
0000
1000
0000
,
1000
0000
0000
0000
,
0001
0000
0001
0000
,
0001
0000
0000
0000
,
1000
0000
1000
0000
,
0001
0000
0000
0000
,
0001
0000
0001
0000
,
1000
0000
0000
0000
,
0001
0000
1000
0000
,
0001
0000
0000
0000
,
1000
0000
1000
0000
,
0001
0000
0000
0000
,
1000
0000
0001
0000
,
1000
0000
0000
0000
,
0001
0000
1000
0000
,
1001
0000
0000
0000
,
1000
0000
0000
0000
,
0001
0000
0000
0000
,
1000
0000
0000
0000
,
0001
0000
0000
0000
,
1000
0000
1000
0000
,
0001
0000
0001
0000
,
1000
1000
0001
0001
,
1001
0000
0000
0000
,
1000
0000
1000
0000
,
0001
0000
0001
0000
,
1000
0000
1000
0000
,
0001
0000
0000
0000
,
1000
0000
1000
0000
,
0001
0000
0001
0000
,
1001
0000
0000
0000
;

//---------------dance-single - ----------------
#NOTES:
     dance-single:
     :
     Easy:
     1:
     0.095520,0.159478,0.000000,0.000000,0.000000,68.000000,68.000000,0.000000,0.000000,0.000000,0.000000,0.095520,0.159478,0.000000,0.000000,0.000000,68.000000,68.000000,0.000000,0.000000,0.000000,0.000000:
0000
0000
0000
0000
,
0000
0000
0000
0000
,
0000
0000
0000
0000
,
0000
0000
0000
0000
,
0000
0000
0000
0000
,
0000
0000
0000
0000
,
0000
0000
0000
0000
,
0000
0000
0000
0000
,
0000
0000
0000
0000
,
0000
0000
0000
0000
,
0001
0000
0000
0000
,
1000
0000
0000
0000
,
0010
0000
0000
0000
,
0001
0000
0001
0000
,
1000
0000
0000
0000
,
1000
0000
0000
0000
,
0010
0000
0000
0000
,
0001
0000
0000
0000
,
0000
0000
0000
1000
,
0000
0000
0000
0010
,
0000
0000
0000
0001
,
0000
0000
0000
0100
,
0000
0000
1000
1000
,
0000
0000
0001
0001
,
0000
0000
1000
0000
,
0000
0000
0100
0000
,
0001
0000
0000
0000
,
0001
0000
0000
0000
,
0010
0000
0000
0000
,
1000
0000
1000
0000
,
1000
0000
0000
0000
,
0001
0000
0000
0000
,
0010
0000
0000
0000
,
0100
0000
0000
0000
,
1000
0000
0000
0000
,
0010
0000
0000
0000
,
0001
0000
0000
0000
,
1000
0000
1000
0000
,
1000
0000
0000
0000
,
0010
0000
0000
0000
,
0001
0000
0000
0000
,
1000
0000
0000
0000
,
0001
0000
0000
1000
,
1000
0000
0000
0000
,
0010
0000
0000
0000
,
0001
0000
1000
0000
,
1000
0000
0000
0001
,
0001
0000
0000
0000
,
0010
0000
0000
0000
,
0100
0000
0000
0000
,
1000
0000
0000
0000
,
0001
0000
0010
0000
,
0001
0000
0000
0000
,
0100
0000
0000
0000
,
0001
0000
0000
0000
,
1000
0000
0000
0000
,
0010
0000
0000
0000
,
1000
0000
0000
0000
,
0001
0000
0000
0010
,
0010
0000
0000
0000
,
0010
0000
0000
0000
,
0001
0000
0010
0000
,
1000
0000
0000
0010
,
0010
0000
0000
0000
,
0010
0000
0000
0000
0000
0000
0000
1000
;

//---------------dance-single - ----------------
#NOTES:
     dance-single:
     :
     Medium:
     3:
     0.213515,0.255165,0.068831,0.000000,0.000000,152.000000,145.000000,7.000000,0.000000,0.000000,0.000000,0.213515,0.255165,0.068831,0.000000,0.000000,152.000000,145.000000,7.000000,0.000000,0.000000,0.000000:
0000
0000
0000
0000
,
0000
0000
0000
0000
,
0000
0000
0000
0000
,
0000
0000
0000
0000
,
0000
0000
0000
0000
,
0000
0000
0000
0000
,
0000
0000
0000
0000
,
0000
0000
0000
0000
,
0000
0000
0000
0000
,
0000
0000
0000
0000
,
0010
0000
0000
0001
,
0001
0000
0000
1000
,
1000
0000
0000
0010
,
0010
0000
0000
0100
,
0010
0000
0000
1000
,
1000
0000
0000
1000
,
0001
0000
0000
0100
,
0100
0000
1001
0000
,
0001
0000
0010
0000
,
1000
0010
0010
0000
,
0100
0000
1000
0000
,
0010
0001
0001
0000
,
0001
0000
0100
0000
,
1000
0000
0100
0000
,
0001
0001
1000
1000
,
0010
0000
1001
0000
,
0010
0000
0000
0001
,
1000
0000
0000
0001
,
0001
0000
0000
0010
,
0010
0000
0000
0100
,
0010
0000
0000
1000
,
0001
0000
0000
0001
,
1000
0000
0000
0100
,
0010
0000
0110
0000
,
0001
0000
1000
0010
,
0010
0001
0010
0000
,
1000
0000
0001
0010
,
1001
0000
0100
0001
,
0001
0000
1000
0010
,
0010
1000
0010
0000
,
1000
0000
0001
0010
,
1001
0000
0100
0010
,
0010
0000
0010
0001
,
0001
0000
0100
1000
,
1000
0000
0001
0010
,
0010
0000
0100
0100
,
0010
0000
0010
1000
,
1000
0000
1000
1000
,
0001
0000
0010
0100
,
0100
0000
0110
0000
,
0001
0000
0010
0010
,
1000
1000
0010
0000
,
0100
0000
1000
0010
,
0010
0010
0001
0000
,
0001
0010
0100
0000
,
1000
0010
0100
0000
,
0001
0001
1000
0001
,
1000
0000
1001
0000
,
0100
0000
0010
0001
,
1000
0000
0100
1000
,
0010
0000
0001
0010
,
0100
0000
0100
1000
,
0100
0000
0010
1000
,
0100
0000
1000
1000
,
0001
0000
0000
0000
0010
0000
0100
0100
;

//---------------dance-single - ----------------
#NOTES:
     dance-single:
     :
     Hard:
     5:
     0.275322,0.382747,0.098329,0.000000,0.000000,196.000000,186.000000,10.000000,0.000000,0.000000,0.000000,0.275322,0.382747,0.098329,0.000000,0.000000,196.000000,186.000000,10.000000,0.000000,0.000000,0.000000:
0000
0000
0000
0000
,
0000
0000
0000
0000
,
0000
0000
0000
0000
,
0000
0000
0000
0000
,
0000
0000
0000
0000
,
0000
0000
0000
0000
,
0000
0000
0000
0000
,
0000
0000
0000
0000
,
0000
0000
0000
0000
,
0001
0000
1000
0000
,
0010
0000
1000
0001
,
0001
0100
0001
1000
,
1000
0010
0100
0010
,
0100
0001
1000
0001
,
0010
0000
0001
1000
,
0001
0010
0001
1000
,
0100
1000
0001
0001
,
1001
0000
0100
0000
,
0010
0000
1000
1000
,
0100
1000
0001
0000
,
0100
0000
0001
0010
,
0001
1000
0100
0000
,
0010
0000
0100
1000
,
0010
0000
0100
0001
,
1000
0001
1000
1001
,
0100
0000
0110
0000
,
0010
0000
1000
0001
,
1000
0100
1000
0001
,
0001
0010
0100
0010
,
0100
1000
0001
1000
,
0010
0000
0001
1000
,
1000
0010
1000
0001
,
0100
0001
1000
1000
,
1000
0000
0001
0000
,
0010
0001
0000
0001
,
0000
1000
0000
1001
,
0010
1000
0000
1000
,
0000
0010
0000
0100
,
0010
0001
0000
0001
,
0000
0001
0000
1001
,
0010
1000
0000
1000
,
0000
0100
0000
0100
,
0010
0010
1000
0001
,
0001
0100
0010
1000
,
1000
0001
0100
0010
,
0100
0001
1000
0100
,
0010
0010
0001
1000
,
0001
0010
0100
1000
,
0100
1000
0001
0010
,
1001
0000
0110
0000
,
0100
0000
1000
1000
,
0010
1000
0001
0000
,
0100
0000
0001
0100
,
0001
1000
0010
0000
,
0001
0000
0100
1000
,
1000
0000
0100
0001
,
1000
0001
1001
1001
,
0100
0100
0110
0000
,
0010
0010
1000
1000
,
0001
0100
1000
1000
,
0100
0001
0100
0010
,
0100
0010
1000
0100
,
0010
0010
0001
0001
,
0001
0100
0100
1000
,
0100
0000
1000
0000
0001
0000
0010
0100
;

//---------------dance-single - ----------------
#NOTES:
     dance-single:
     :
     Challenge:
     7:
     0.408769,0.414643,0.206492,0.000000,0.039332,291.000000,270.000000,21.000000,0.000000,0.000000,0.000000,0.408769,0.414643,0.206492,0.000000,0.039332,291.000000,270.000000,21.000000,0.000000,0.000000,0.000000:
0000
0000
0000
0000
,
0000
0000
0000
0000
,
0000
0000
0000
0000
,
0000
0000
0000
0000
,
0000
0000
0000
0000
,
0000
0000
0000
0000
,
0000
0000
0000
0000
,
0000
0000
0000
0000
,
0000
0000
0000
0000
,
1000
0000
0000
0000
0001
0000
0000
1000
,
0010
0000
0010
0000
1000
0010
1000
0000
,
0001
0010
0001
1000
0000
0000
0000
0000
,
0100
1000
0010
0100
,
0001
0010
0100
1000
0001
0000
1001
0000
,
0010
0000
0010
0000
0001
0010
0001
0000
,
0001
0100
0001
1000
0000
1000
0001
0000
,
0100
0000
0010
0000
1000
0001
0100
0010
,
0100
0000
0001
0000
1001
0000
1000
0010
,
1000
0000
0000
0000
0100
0000
0000
0000
1000
0000
0000
1000
0000
0000
0001
0000
,
0100
0000
0001
0000
0101
0000
0000
1000
,
0010
0000
1000
0000
1010
0000
0000
0100
,
0001
0000
0000
0000
0010
0000
0000
0000
0001
0000
0000
1000
0000
0000
0001
0000
,
1000
0000
0000
0000
0100
0000
0000
0000
1000
0000
0000
0001
0000
0000
0100
0000
,
0001
0000
0000
0000
0010
0000
0000
0000
0001
0000
0000
1000
0000
0000
0100
0000
,
1000
1001
0010
0110
,
0001
1000
0000
0000
0101
0000
0000
0000
,
0010
0000
0010
0000
1000
0010
1000
0000
,
1000
0010
1000
0001
0000
0000
0000
0000
,
0100
0001
0010
0100
,
1000
0010
0100
0001
1000
0000
1001
0000
,
0010
0000
0010
0000
0001
0010
0001
0000
,
1000
0100
1000
0001
0000
0001
1000
0000
,
0100
0000
0010
0000
0001
1000
0100
0010
,
0001
0000
0000
0000
1000
0000
0000
0001
,
1000
0000
0001
0000
0001
0000
0010
0001
,
0100
0010
1001
1000
,
0001
0000
1000
0000
1000
0000
0010
1000
,
0100
0000
1000
0001
0010
0000
1001
0000
,
1000
0000
0001
0000
0001
0000
0010
0001
,
0100
0010
1001
0001
,
0001
0000
1000
0000
1000
0000
0010
1000
,
0001
0000
1000
0100
0010
0000
1001
0000
,
0100
0000
0001
0000
1000
0010
1000
0000
,
0001
0100
0001
1000
0000
1000
0000
0000
,
0001
1000
0010
0100
,
0001
0010
0100
0010
0001
0000
1001
0000
,
0100
0000
1000
0000
0001
0010
0001
0000
,
0001
0100
0010
1000
0000
1000
0010
0000
,
0100
0000
0001
0000
1000
0001
1000
0010
,
0100
0000
0010
0000
1010
0000
1000
0010
,
1000
0000
0000
0000
0100
0000
0000
0000
1000
0000
0000
0010
0000
0000
0100
0000
,
0001
0000
0100
0000
0101
0000
0000
1000
,
1000
0000
0010
0000
1010
0000
0000
0100
,
0001
0000
0000
0000
0010
0000
0000
0000
0100
0000
0000
1000
0000
0000
0001
0000
,
1000
0000
0000
0000
0001
0000
0000
0000
0100
0000
0000
0001
0000
0000
0100
0000
,
0001
0000
0000
0000
1000
0000
0000
0000
0100
0000
0000
1000
0000
0000
0100
0000
,
1000
1001
0001
0101
,
0001
0010
0000
0000
1100
0000
0000
0000
,
1000
0000
0001
0000
1000
0010
1000
0000
,
0001
0100
0001
1000
0000
0001
0000
0000
,
0001
1000
0010
1000
,
0001
1000
0100
0010
0100
0000
1001
0000
,
0001
0000
1000
0000
0001
0010
0001
0000
,
0001
0100
0010
1000
0000
0001
0010
0000
,
0100
0000
1001
0000
1000
0001
1000
0100
;
