#TITLE:Garden Boogie;
#SUBTITLE:;
#ARTIST:From Carmen;
#TITLETRANSLIT:;
#SUBTITLETRANSLIT:;
#ARTISTTRANSLIT:;
#GENRE:;
#CREDIT:;
#BANNER:Garden Boogie.png;
#BACKGROUND:Garden Boogie-bg.png;
#LYRICSPATH:;
#CDTITLE:;
#MUSIC:Garden Boogie.ogg;
#OFFSET:0.142061;
#SAMPLESTART:30.670000;
#SAMPLELENGTH:15.000000;
#SELECTABLE:YES;
#DISPLAYBPM:140.000000;
#BPMS:0.000000=140.000000
;
#STOPS:
;
#BGCHANGES:-0.600=Garden Boogie.avi=1.000=1=0=1===CrossFade==,
225.000=Garden Boogie-bg.png=1.000=1=0=1===CrossFade==,
99999=-nosongbg-=1.000=0=0=0 // don't automatically add -songbackground-
;
#KEYSOUNDS:;
#ATTACKS:;

//---------------dance-single - ----------------
#NOTES:
     dance-single:
     :
     Challenge:
     7:
     0.431652,0.475949,0.063389,0.000000,0.089802,286.000000,280.000000,6.000000,0.000000,0.000000,0.000000,0.431652,0.475949,0.063389,0.000000,0.089802,286.000000,280.000000,6.000000,0.000000,0.000000,0.000000:
0000
0000
0000
0000
,
0000
0000
0000
0000
,
0000
0000
0000
0000
,
0000
0000
0000
0000
,
0001
0100
0001
0000
1000
0100
1000
0000
,
0001
1000
0010
1000
0100
1000
0001
0000
,
0001
0010
0001
0000
1000
0010
1000
0000
,
0001
0100
0010
1000
0001
1000
0001
0000
,
0100
0010
0100
0000
0010
0100
0010
0000
,
0010
0100
0001
1000
0100
0000
1001
0000
,
1000
0100
1000
0000
0001
0100
0001
0000
,
0001
1000
0001
0100
0010
1000
0001
0000
,
0001
0100
0001
0000
1000
0100
1000
0000
,
1000
0001
0010
0001
0100
0001
1000
0000
,
1000
0010
0000
0000
0001
0010
0000
0000
,
1000
0100
0010
0001
1000
0001
1000
0000
,
0100
0010
0100
0000
0010
0100
0010
0000
,
0001
0100
0001
1000
0010
0000
1001
0000
,
1000
0000
0000
0000
1000
0000
0000
0001
0000
0000
0100
0000
1000
0000
1000
0000
,
0100
0000
0000
0000
0100
0000
0000
0001
0000
0000
0010
0000
0001
0000
1000
0000
,
0001
0000
0000
0000
0001
0000
0000
1000
0000
0000
0010
0000
0001
0000
0001
0000
,
1000
0000
0000
0000
,
0001
0000
0000
0000
0001
0000
0000
0100
0000
0000
0001
0000
0010
0000
0100
0000
,
1000
0000
0000
0000
1000
0000
0000
0001
0000
0000
0001
0000
1000
0000
0100
0000
,
0010
0000
0000
0100
0000
0000
0010
0000
0001
0000
0000
1000
0000
0000
0100
0000
,
1000
0000
0000
0000
,
0001
0000
0000
0000
0001
0000
0000
1000
0000
0000
0100
0000
0001
0000
0001
0000
,
0100
0000
0000
0000
0100
0000
0000
1000
0000
0000
0010
0000
1000
0000
0001
0000
,
1000
0000
0000
0000
1000
0000
0000
0001
0000
0000
0010
0000
0100
0000
0100
0000
,
1000
0000
0000
0000
,
1000
0000
0000
0000
1000
0000
0000
0100
0000
0000
0001
0000
0100
0000
1000
0000
,
0001
0000
0000
0000
0001
0000
0000
0010
0000
0000
0100
0000
1000
0000
1000
0000
,
0001
0000
0000
0100
0000
0000
0010
0000
1000
0000
0000
0010
0000
0000
0100
0000
,
0001
1000
0001
1000
0010
0000
0110
0000
,
0010
0001
0010
0100
,
1000
0100
1000
0001
,
0100
0001
0100
0010
,
1000
0100
0010
0001
,
0001
0010
0100
1000
0100
0010
0001
1000
,
1000
0001
0010
0100
1000
0001
0100
0010
,
1000
0001
1001
1000
,
1000
0010
1000
0100
0010
0000
0110
0000
,
0001
0100
0001
0000
1000
0100
1000
0000
,
1000
0001
1000
0100
0010
0001
1000
0000
,
1000
0100
1000
0000
0001
0100
0001
0000
,
0001
1000
0010
1000
0100
1000
0001
0000
,
0001
0010
0001
0000
1000
0010
1000
0000
,
0001
0100
0010
1000
0001
1000
0001
0000
,
0100
0010
0100
0000
0010
0100
0010
0000
,
1000
0100
1000
0001
0010
0000
1001
0000
,
1000
0000
0000
0000
0100
0000
0000
0010
0000
0000
0100
0000
1000
0000
0001
0000
,
0100
0000
0000
0000
0010
0000
0000
1000
0000
0000
0001
0000
0100
0000
0001
0000
,
0010
0000
0000
0000
0010
0000
0000
0001
0000
0000
1000
0000
0001
0000
0001
0000
,
1000
0000
0000
0000
;

//---------------dance-single - ----------------
#NOTES:
     dance-single:
     :
     Beginner:
     1:
     0.063389,0.111988,0.000000,0.000000,0.000000,42.000000,42.000000,0.000000,0.000000,0.000000,0.000000,0.063389,0.111988,0.000000,0.000000,0.000000,42.000000,42.000000,0.000000,0.000000,0.000000,0.000000:
0000
0000
0000
0000
,
0000
0000
0000
0000
,
0000
0000
0000
0000
,
0000
0000
0000
0000
,
0000
0000
0000
0000
,
0000
0000
0000
0000
,
0000
0000
0000
0000
,
0000
0000
0000
0000
,
0000
0000
0000
0000
,
0000
0000
0000
0000
,
0001
0000
0000
0000
,
0001
0000
0000
0000
,
1000
0000
0000
0000
,
0001
0000
0000
0000
,
0001
0000
0000
0000
,
1000
0000
0000
0000
,
0001
0000
0000
0000
,
0000
0000
0000
0000
,
1000
0000
0000
0000
,
0001
0000
0000
0000
,
0001
0000
0000
0000
,
0000
0000
0000
0000
,
0001
0000
0000
0000
,
0001
0000
0000
0000
,
1000
0000
1000
0000
,
1000
0000
0000
0000
,
0001
0000
0000
0000
,
1000
0000
0000
0000
,
1000
0000
0000
0000
,
0000
0000
0000
0000
,
0001
0000
0000
0000
,
1000
0000
0000
0000
,
1000
0000
1000
0000
,
0001
0000
0000
0000
,
1000
0000
0000
0000
,
0000
0000
0000
0000
,
0001
0000
0000
0000
,
0000
0000
0000
0000
,
1000
0000
0000
0000
,
0001
0000
0000
0000
,
1000
0000
0000
0000
,
0001
0000
0001
0000
,
1000
0000
0000
0000
,
1000
0000
0000
0000
,
0001
0000
0000
0000
,
1000
0000
0000
0000
,
1000
0000
0000
0000
,
0001
0000
0000
0000
,
1000
0000
0000
0000
,
0000
0000
0000
0000
,
1000
0000
0000
0000
,
0001
0000
0000
0000
,
1000
0000
0001
0000
,
1000
0000
0000
0000
;

//---------------dance-single - ----------------
#NOTES:
     dance-single:
     :
     Easy:
     2:
     0.081501,0.139985,0.010565,0.000000,0.000000,54.000000,53.000000,1.000000,0.000000,0.000000,0.000000,0.081501,0.139985,0.010565,0.000000,0.000000,54.000000,53.000000,1.000000,0.000000,0.000000,0.000000:
0000
0000
0000
0000
,
0000
0000
0000
0000
,
0000
0000
0000
0000
,
0000
0000
0000
0000
,
0000
0000
0000
0000
,
0000
0000
0000
0000
,
0000
0000
0000
0000
,
0000
0000
0000
0000
,
1000
0000
1000
0000
,
1000
0000
0000
0000
,
0001
0000
0000
0000
,
1000
0000
0000
0000
,
1000
0000
0000
0000
,
0010
0000
0000
0000
,
1000
0000
0000
0000
,
0001
0000
0000
0000
,
0001
0000
0001
0000
,
1000
0000
0000
0000
,
0010
0000
0000
0000
,
0000
0000
0000
0000
,
1000
1000
0000
0000
,
0001
0000
1000
0000
,
1000
0000
0000
0000
,
0000
0000
0000
0000
,
0001
0000
0001
0000
,
0100
0000
0000
0000
,
0010
0000
0000
0000
,
0000
0000
0000
0000
,
0001
0001
0000
0000
,
1000
0000
0001
0000
,
0001
0000
0000
0000
,
1000
0000
0000
0000
,
0001
0000
0001
0001
,
0001
0000
0000
0000
,
0100
0000
0000
0000
,
0000
0000
0000
0000
,
0001
0001
0000
0000
,
0000
0000
0000
0000
,
1001
0000
0000
0000
,
0010
0000
0000
0000
,
1000
0000
0010
0000
,
1000
0000
0000
0000
,
0001
0000
0000
0000
,
0001
0000
0000
0000
,
1000
0000
0000
0000
,
0010
0000
0000
0000
,
0001
0000
0000
0000
,
1000
0000
0000
0000
,
1000
0000
1000
0000
,
0001
0000
0000
0000
,
0100
0000
0000
0000
,
0000
0000
0000
0000
,
0010
0010
0000
0000
,
0001
0000
0000
0000
;

//---------------dance-single - ----------------
#NOTES:
     dance-single:
     :
     Medium:
     4:
     0.232428,0.279970,0.190168,0.000000,0.000000,154.000000,136.000000,18.000000,0.000000,0.000000,0.000000,0.232428,0.279970,0.190168,0.000000,0.000000,154.000000,136.000000,18.000000,0.000000,0.000000,0.000000:
0000
0000
0000
0000
,
0000
0000
0000
0000
,
0000
0000
0000
0000
,
0000
0000
0000
0000
,
0000
0000
0000
0000
,
0000
0000
0000
0000
,
1000
0000
1000
0001
,
0001
1000
0100
0000
,
1001
0000
0110
0000
,
0010
0010
0100
0000
,
0010
0000
1000
0001
,
0001
0001
0100
0000
,
0010
0000
0001
1000
,
0001
1000
1000
0000
,
0001
0000
0001
1000
,
1000
0001
0100
0000
,
1001
0000
0110
0000
,
0010
0010
0100
0100
,
0001
0000
1001
0000
,
0010
1000
0100
0001
,
0010
0000
0110
0000
,
1001
1000
0100
0000
,
1000
0001
1000
0000
,
0001
0001
0100
0000
,
0010
0100
0010
0000
,
0110
0000
0000
0000
,
1000
0000
1001
0000
,
0010
0001
0100
1000
,
0010
0000
0110
0000
,
1001
0001
0100
0000
,
1000
0100
0001
0000
,
0010
0010
0100
0000
,
0110
0000
1001
0000
,
1000
0001
0100
0000
,
0010
0010
0001
0001
,
1000
1000
0100
0000
,
0001
0000
0010
0001
,
1000
0000
0010
1000
,
0001
0000
0000
0000
0001
0000
0000
1000
,
1000
0000
0000
0000
1000
0000
0000
0010
,
0010
0000
0100
0000
,
0010
1000
1000
0000
,
0010
0000
0001
1000
,
1000
1000
0100
0000
,
0010
0000
1000
0001
,
1000
0001
0001
0000
,
1000
0000
1000
0001
,
0001
1000
0100
0000
,
1001
0000
0110
0000
,
0010
0010
0100
0100
,
0001
1000
1001
0000
,
0100
1000
0010
0001
,
0100
0000
0110
0000
,
1001
0000
0000
0000
;

//---------------dance-single - ----------------
#NOTES:
     dance-single:
     :
     Hard:
     5:
     0.303364,0.335964,0.221863,0.000000,0.000000,201.000000,180.000000,21.000000,0.000000,0.000000,0.000000,0.303364,0.335964,0.221863,0.000000,0.000000,201.000000,180.000000,21.000000,0.000000,0.000000,0.000000:
0000
0000
0000
0000
,
0000
0000
0000
0000
,
0000
0000
0000
0000
,
0000
0000
0000
1000
,
0100
1000
0001
1000
,
1000
0001
0100
1000
,
0100
0001
0001
1000
,
0100
0001
0100
1000
,
0001
1001
0000
0001
,
1000
0010
0100
0001
,
0100
0001
1000
1000
,
1000
0001
1000
1000
,
0100
1000
0001
0001
,
0001
1000
0100
0001
,
0100
1000
1000
0001
,
0100
1000
0100
0001
,
1000
1001
0000
0001
,
0100
0010
0100
0001
,
0100
1000
1000
0100
,
0100
0001
0001
1001
,
0000
0101
0000
1001
,
0100
0001
1000
0001
,
0100
0100
0001
0010
,
0010
0100
1000
0001
,
1000
0001
1000
0110
,
0000
0010
0100
1000
,
0100
0001
0001
0100
,
0100
1000
1000
1001
,
0000
1100
0000
1001
,
0100
1000
0001
1000
,
0010
0100
0001
0100
,
0010
1000
1000
1001
,
0010
1001
0000
0100
,
0001
1000
0000
0010
,
0001
0100
0001
0100
,
0001
0001
1000
0100
,
0100
1000
0010
1000
,
0010
0000
0100
0000
0000
0001
1000
0000
,
0000
0000
1001
0000
0000
0010
0100
0000
,
0000
0000
0110
0000
0000
0001
1001
0000
,
0000
0110
0000
1001
,
1001
0100
0000
0001
,
0100
0001
1000
0001
,
0001
1000
0001
1000
,
0100
1000
0001
1000
,
1000
0001
0100
1000
,
0100
0001
0001
1000
,
0100
0001
0100
1000
,
0001
1001
0000
1000
,
0100
0010
0100
0001
,
0100
1000
0100
1000
,
0100
0001
0100
0000
,
1001
0000
0110
0000
,
1001
0000
0000
0000
;
