#TITLE:Frozen Pipes;
#SUBTITLE:;
#ARTIST:From Old Folks at Home;
#TITLETRANSLIT:;
#SUBTITLETRANSLIT:;
#ARTISTTRANSLIT:;
#GENRE:;
#CREDIT:;
#BANNER:Frozen Pipes.png;
#BACKGROUND:Frozen Pipes-bg.png;
#LYRICSPATH:;
#CDTITLE:;
#MUSIC:Frozen Pipes.ogg;
#OFFSET:1.771765;
#SAMPLESTART:21.309999;
#SAMPLELENGTH:15.000000;
#LASTBEATHINT:1.722059;
#SELECTABLE:YES;
#DISPLAYBPM:135.000000;
#BPMS:0.000000=135.000000
;
#STOPS:
;
#BGCHANGES:3.500=Frozen Pipes.avi=1.000=1=0=1===CrossFade==,
212.000=Frozen Pipes-bg.png=1.000=1=0=1===CrossFade==,
99999=-nosongbg-=1.000=0=0=0 // don't automatically add -songbackground-
;
#KEYSOUNDS:;
#ATTACKS:;

//---------------dance-single - ----------------
#NOTES:
     dance-single:
     :
     Beginner:
     2:
     0.167434,0.325567,0.130227,0.000000,0.000000,108.000000,96.000000,12.000000,0.000000,0.000000,0.000000,0.167434,0.325567,0.130227,0.000000,0.000000,108.000000,96.000000,12.000000,0.000000,0.000000,0.000000:
0000
0000
0000
0000
,
0000
0000
0000
0000
,
0000
0000
0000
0000
,
0000
0000
0000
0000
,
0000
0000
0000
0000
,
0000
0000
0000
0000
,
0000
0000
0000
0000
,
0000
0000
0000
0000
,
0000
0000
0000
0000
,
1000
0001
1000
0000
,
1000
0000
1000
0000
,
0001
1000
0001
0000
,
0001
0000
0001
0000
,
1000
0000
0001
0000
,
1000
1000
1000
0000
,
0001
0000
1000
0001
,
1000
0000
0000
0000
,
0001
0000
1000
0000
,
0001
0001
0001
0000
,
1000
1000
0001
0001
,
1000
0000
0000
0000
,
0001
0000
1000
0000
,
0001
0001
0001
0000
,
1000
0000
0001
1000
,
0001
0000
0000
0000
,
1000
0000
0001
0000
,
1000
1000
1000
0000
,
0001
0000
1000
1000
,
0001
0000
0000
0000
,
1001
0000
0001
0000
,
1000
0000
0001
0000
,
1001
1001
1001
1001
,
1001
0000
0000
0000
,
1000
0000
0001
0000
,
1000
1000
1000
0000
,
0001
1000
0001
0000
,
1001
0000
0000
0000
,
1000
1000
1000
1000
,
1001
0000
0000
0000
,
0001
0001
0001
0001
,
1001
0000
0000
0000
,
0001
0000
1000
0000
,
0001
0001
0001
0000
,
1000
0000
0001
0000
,
1000
1000
1000
0000
,
0001
0000
1000
0000
,
0001
0000
1000
0000
,
0001
0001
1000
1000
,
1001
0000
0000
0000
,
1001
0000
0000
0000
,
1001
0000
0000
0000
;

//---------------dance-single - ----------------
#NOTES:
     dance-single:
     :
     Easy:
     2:
     0.165884,0.221385,0.075966,0.000000,0.000000,107.000000,100.000000,7.000000,0.000000,0.000000,0.000000,0.165884,0.221385,0.075966,0.000000,0.000000,107.000000,100.000000,7.000000,0.000000,0.000000,0.000000:
0000
0000
0000
0000
,
0000
0000
0000
0000
,
0000
0000
0000
0000
,
0000
0000
0000
0000
,
0000
0000
0000
0000
,
0000
0000
0000
0000
,
0000
0000
0000
0000
,
0000
0000
0000
0000
,
0000
0000
0000
0000
,
0001
0000
0000
0000
0000
0000
1000
1000
,
0000
0000
0000
0000
,
0001
0000
0000
1000
,
1000
0000
0010
0000
,
0010
0000
0001
0000
,
0001
0000
1000
0000
,
1000
0000
0100
0000
,
0010
0000
0001
0010
,
0010
0000
1000
0000
,
1000
0000
0001
0000
,
1000
1000
0010
0000
,
1001
0000
0000
0000
,
0100
0000
0001
0000
,
1000
0010
1000
0000
,
1000
0000
1000
0100
,
1000
0000
0001
0001
,
0001
0000
0001
0000
,
0001
0010
0001
0000
,
1000
1000
0010
0000
,
1001
0000
0001
0000
,
0100
0000
0001
0010
,
0001
0000
1000
0010
,
0010
0000
0100
0000
,
0110
0000
0000
0000
,
1000
0000
1000
0000
,
0001
0001
0100
0000
,
0001
0001
0010
0000
,
1001
0000
1000
0000
,
1000
0000
0001
0001
,
1001
0000
0001
0000
,
1000
0000
0001
0010
,
1001
0000
1000
0000
,
0001
0000
0001
0000
,
1000
0010
1000
0000
,
1000
0000
1000
0000
,
0001
0010
0001
0000
,
0001
0000
0001
0000
,
1000
0000
1000
0000
,
0001
0000
1000
0010
,
0010
1000
0010
0000
,
1001
0000
0001
0001
,
0100
0000
0010
0000
,
0100
0000
0000
0000
;

//---------------dance-single - ----------------
#NOTES:
     dance-single:
     :
     Medium:
     3:
     0.210843,0.276732,0.097670,0.000000,0.000000,136.000000,127.000000,9.000000,0.000000,0.000000,0.000000,0.210843,0.276732,0.097670,0.000000,0.000000,136.000000,127.000000,9.000000,0.000000,0.000000,0.000000:
0000
0000
0000
0000
,
0000
0000
0000
0000
,
0000
0000
0000
0000
,
0000
0000
0000
0000
,
0000
0000
0000
0000
,
0000
0000
0000
0000
,
0000
0000
0000
0000
,
0000
0000
0000
0000
,
0000
0000
0000
0000
,
1000
0000
0000
1000
0000
0000
1000
0000
,
0010
0000
0001
0000
,
0010
0000
0000
1000
0000
0000
1000
0000
,
0001
0010
0010
0000
,
1000
0000
0100
0001
,
0001
1000
1000
0000
,
0010
0000
0001
0100
,
0010
0000
1000
0001
,
0001
0000
0100
1000
,
1000
0001
0001
0000
,
0010
0100
1000
1000
,
1001
0000
0010
0000
,
0001
0000
1000
0010
,
0010
1000
1000
0000
,
0001
0000
0001
0100
,
0010
0010
0100
0000
,
1000
0000
1000
0001
,
0010
0001
0001
0000
,
0010
0001
1000
1000
,
0001
0000
0110
0000
,
1000
0000
0000
1000
1000
0000
0000
0000
,
0100
0000
0000
0001
0001
0000
0000
0000
,
0010
0010
1000
0001
,
1001
0000
0001
1000
,
0001
0000
0001
1000
,
0010
0010
1000
0000
,
0010
1000
0001
0001
,
1000
0000
0110
0000
,
0001
0001
1000
1000
,
0001
0000
0110
0000
,
0001
0001
0001
1000
,
1000
0000
0110
0000
,
1000
0000
1000
0001
,
0010
1000
1000
0000
,
0001
0000
0001
1000
,
0010
0001
0001
0000
,
1000
0000
1000
0001
,
0001
0000
0001
1000
,
0100
0000
0010
0010
,
0010
0001
1000
1000
,
1001
0000
0110
0000
,
0100
0000
1000
0001
,
1001
0000
0000
0000
;

//---------------dance-single - ----------------
#NOTES:
     dance-single:
     :
     Hard:
     5:
     0.297661,0.387424,0.195340,0.000000,0.000000,192.000000,174.000000,18.000000,0.000000,0.000000,0.000000,0.297661,0.387424,0.195340,0.000000,0.000000,192.000000,174.000000,18.000000,0.000000,0.000000,0.000000:
0000
0000
0000
0000
,
0000
0000
0000
0000
,
0000
0000
0000
0000
,
0000
0000
0000
0000
,
0000
0000
0000
0000
,
0000
0000
0000
0000
,
0000
0000
0000
0000
,
0000
0000
0000
0000
,
0000
0000
0000
0000
,
0010
0000
0000
0010
0000
0000
1000
0001
,
1000
0010
1000
0100
,
0010
0000
0000
0010
0000
0000
0001
0001
,
0001
0010
1001
0100
,
1000
0000
0010
0000
0010
0000
0100
0010
,
0100
0000
0001
0000
1000
1000
0000
0000
,
0100
1000
0001
0001
,
0010
0010
0001
1001
,
0001
0000
0010
0000
0010
0000
0100
1000
,
0100
0000
1000
0000
0001
0001
0000
0000
,
0100
0001
1000
0010
,
0100
0000
0010
0110
,
1000
0010
1000
0001
,
0001
0000
1000
0000
1000
0100
0000
0000
,
0100
1000
0001
0010
,
1000
0100
0001
0011
,
1000
0010
0010
1000
,
1000
0000
0001
0000
0001
0010
0000
0000
,
0010
0000
0001
1000
0100
0000
0100
0000
,
1000
1001
0001
0100
,
0001
0000
0000
0001
0001
0000
1000
0000
,
0010
0000
0000
1000
1000
0000
0100
0000
,
1001
0110
1001
0110
,
1001
0000
0001
1000
,
0001
0000
0010
0000
0010
0000
0001
0100
,
0001
0000
1000
0000
0001
1000
0000
0000
,
0010
1000
0001
0100
,
0001
1001
1000
0100
,
1000
0010
0100
0001
,
1000
1001
0001
0100
,
0001
0010
0100
1000
,
0001
1001
1000
0100
,
1000
0000
0010
0000
0010
0000
1000
0001
,
0100
0000
1000
0000
0001
1000
0000
0000
,
0001
0000
0010
0000
0010
0000
0001
1000
,
0100
0000
0001
0000
1000
0001
0000
0000
,
1000
0000
0010
0000
0010
0000
1000
0001
,
0100
0000
0100
0000
0100
0000
0001
1000
,
0100
1001
0010
0110
,
1001
0000
1000
0100
,
1000
1001
0001
0010
,
0001
0001
1000
0100
,
1100
0000
0000
0000
;

//---------------dance-single - ----------------
#NOTES:
     dance-single:
     :
     Challenge:
     7:
     0.373627,0.470444,0.282158,0.000000,0.010852,241.000000,215.000000,26.000000,0.000000,0.000000,0.000000,0.373627,0.470444,0.282158,0.000000,0.010852,241.000000,215.000000,26.000000,0.000000,0.000000,0.000000:
0000
0000
0000
0000
,
0000
0000
0000
0000
,
0000
0000
0000
0000
,
0000
0000
0000
0000
,
0000
0000
0000
0000
,
0000
0000
0000
0000
,
0000
0000
0000
0000
,
0000
0000
0000
0000
,
0000
0000
0000
0000
,
0100
0000
0001
1000
0000
1000
0010
0100
,
0001
0001
1000
0010
,
1000
0000
0001
1000
0000
1000
0010
0010
,
0100
1001
0001
0100
,
0001
0000
1000
0000
0010
1000
0010
0100
,
0001
0000
0101
0000
0001
1000
0000
0000
,
0010
1000
0001
0100
,
0001
0000
0000
1000
0000
0000
0010
0000
0100
0000
0000
0000
0110
0000
0000
0000
,
1000
0000
0001
0000
0010
0001
0010
0100
,
1000
0000
1100
0000
1000
0001
0000
0000
,
0010
0000
0001
0100
0001
0000
1000
0000
,
1001
0000
0010
1010
,
0100
0000
0010
0000
0000
0000
0000
0000
1000
0000
0010
0100
0000
0000
0001
0000
,
1000
0000
0101
0000
0001
0100
0000
0000
,
0010
1000
0010
0100
,
0001
0000
0001
0000
1000
0100
0001
0100
,
1000
0000
1000
0000
0001
1000
0010
0100
,
0001
0000
1100
0000
1000
0100
0000
0000
,
0010
0000
0001
0100
0101
0000
1001
0000
,
0010
0010
0001
1000
0100
1000
0001
0100
,
0001
0000
0000
0010
0100
0000
1000
0000
,
0100
0000
0000
0010
0001
0000
1000
0000
,
1001
0011
1100
0001
,
0110
0000
0000
0000
,
0001
0000
0001
0000
1000
0001
0010
0100
,
1000
0000
1100
0000
0010
0100
0000
0000
,
0010
0000
1000
0100
1100
0000
1001
0000
,
0010
0010
1000
0001
0100
0001
1000
0100
,
0010
1001
1000
0001
,
0010
0010
0001
1000
0100
1000
0001
0100
,
0010
1001
0100
1000
,
0010
0010
1000
0001
0100
0001
1000
0100
,
1000
0000
1000
0000
0001
1000
0010
0100
,
0001
0000
1100
0000
1000
0100
0000
0000
,
0001
0000
0001
0000
1000
0001
0010
0100
,
1000
0000
0101
0000
0001
0100
0000
0000
,
1000
0000
1000
0000
0001
1000
0010
0100
,
0001
0000
0001
0000
1000
0001
0010
0100
,
1000
0110
0001
1001
,
0010
0000
0001
0100
0101
0000
1001
0000
,
0010
1000
0001
1000
0100
1000
0010
0100
,
0001
0000
1000
0000
0001
0010
0100
0000
,
1100
0000
0000
0000
;
