#TITLE:Fishing Frenzy;
#SUBTITLE:;
#ARTIST:From Csikos Post;
#TITLETRANSLIT:;
#SUBTITLETRANSLIT:;
#ARTISTTRANSLIT:;
#GENRE:;
#CREDIT:;
#BANNER:Fishing Frenzy.png;
#BACKGROUND:Fishing Frenzy-bg.png;
#LYRICSPATH:;
#CDTITLE:;
#MUSIC:Fishing Frenzy.ogg;
#OFFSET:1.659610;
#SAMPLESTART:13.520005;
#SAMPLELENGTH:15.000000;
#LASTBEATHINT:1.545918;
#SELECTABLE:YES;
#DISPLAYBPM:142.000000;
#BPMS:0.000000=142.000000
;
#STOPS:
;
#BGCHANGES:3.500=Fishing Frenzy.avi=1.000=1=0=1===CrossFade==,
208.000=Fishing Frenzy-bg.png=1.000=1=0=1===CrossFade==,
99999=-nosongbg-=1.000=0=0=0 // don't automatically add -songbackground-
;
#KEYSOUNDS:;
#ATTACKS:;

//---------------dance-single - ----------------
#NOTES:
     dance-single:
     :
     Beginner:
     1:
     0.102192,0.201116,0.011727,0.000000,0.000000,61.000000,60.000000,1.000000,0.000000,0.000000,0.000000,0.102192,0.201116,0.011727,0.000000,0.000000,61.000000,60.000000,1.000000,0.000000,0.000000,0.000000:
0000
0000
0000
0000
,
0000
0000
0000
0000
,
0000
0000
0000
0000
,
0000
0000
0000
0000
,
0000
0000
0000
0000
,
0000
0000
0000
0000
,
0000
0000
0000
0000
,
0000
0000
0000
0000
,
0000
0000
0000
0000
,
1000
0000
1000
0000
,
0001
0001
0001
0000
,
0000
0000
0000
0000
,
0000
0000
0000
0000
,
0001
0000
0001
0000
,
1000
1000
1000
0000
,
0000
0000
0000
0000
,
0000
0000
0000
0000
,
1000
1000
0000
0000
,
0001
0001
0001
0000
,
1000
0000
1000
0000
,
0001
0000
0001
0000
,
0001
0001
0000
0000
,
1000
1000
1000
0000
,
0001
0000
1000
0000
,
0001
0000
0000
0000
,
1000
0000
1000
0000
,
0001
0001
0001
0000
,
0000
0000
0000
0000
,
0000
0000
0000
0000
,
0001
0000
0001
0000
,
1000
1000
1000
0000
,
0001
0001
0001
0000
,
1000
0000
0000
0000
,
0001
0000
0000
0000
,
1000
0000
0000
0000
,
0001
0000
0000
0000
,
1000
0000
0000
0000
,
0001
0000
0000
0000
,
1000
0000
0000
0000
,
0001
0000
0000
0000
,
1000
0000
0000
0000
,
0001
0000
0001
0000
,
1000
1000
1000
0000
,
0000
0000
0000
0000
,
0000
0000
0000
0000
,
1000
0000
1000
0000
,
0001
0001
0001
0000
,
0000
0000
0000
0000
,
0000
0000
0000
0000
,
1001
0000
0000
0000
;

//---------------dance-single - ----------------
#NOTES:
     dance-single:
     :
     Easy:
     2:
     0.162501,0.229847,0.117269,0.000000,0.000000,97.000000,87.000000,10.000000,0.000000,0.000000,0.000000,0.162501,0.229847,0.117269,0.000000,0.000000,97.000000,87.000000,10.000000,0.000000,0.000000,0.000000:
0000
0000
0000
0000
,
0000
0000
0000
0000
,
0000
0000
0000
0000
,
0000
0000
0000
0000
,
0000
0000
0000
0000
,
0000
1001
0000
0000
,
0000
0000
0000
0000
,
0000
0110
0000
0000
,
0000
0000
0000
0000
,
0001
0000
0001
0000
,
1000
1000
1000
0000
,
0010
0000
0001
0000
,
1000
0000
0010
0000
,
1000
0000
1000
0000
,
0001
0001
0001
0000
,
0010
0000
1000
0000
,
0010
0000
0001
0000
,
1000
0000
0001
0000
,
0010
0000
1001
0000
,
0001
0000
0100
0000
,
1000
0000
1000
0000
,
0001
0000
1000
0000
,
0001
0100
0100
0000
,
1000
0000
0100
0000
,
0001
0000
0010
0000
,
0100
0000
0001
0000
,
1000
1000
1000
0000
,
0001
0000
0001
0000
,
0010
0000
0010
0000
,
0100
0000
1000
0000
,
0001
0001
0001
0000
,
0010
0010
0010
0010
,
0010
0000
1001
0000
,
1000
0000
0000
0000
,
0010
0000
0000
0000
,
0001
0000
0000
0000
,
0100
0000
0000
0000
,
1000
1000
0000
0000
,
0010
0010
0000
0000
,
0001
0001
0000
0000
,
0100
0100
0000
0000
,
1001
0000
0001
0000
,
1000
0000
1001
0000
,
0010
0000
0100
0000
,
1000
0000
0010
0000
,
1001
0000
0010
0000
,
1001
0000
1001
0000
,
0100
0000
0010
0000
,
0100
0100
0100
0000
,
0110
0000
0000
0000
;

//---------------dance-single - ----------------
#NOTES:
     dance-single:
     :
     Medium:
     4:
     0.222811,0.258578,0.082088,0.000000,0.000000,133.000000,126.000000,7.000000,0.000000,0.000000,0.000000,0.222811,0.258578,0.082088,0.000000,0.000000,133.000000,126.000000,7.000000,0.000000,0.000000,0.000000:
0000
0000
0000
0000
,
0000
0000
0000
0000
,
0000
0000
0000
0000
,
0000
0000
0000
0000
,
0000
0000
0000
0000
,
0001
1001
0000
0000
,
1000
1000
0000
0000
,
1000
1001
0000
0000
,
0001
1000
0000
0000
,
0010
0000
0010
0001
,
0001
0001
1000
0000
,
1000
0000
0010
0000
,
1000
1000
0001
0010
,
0010
0000
0010
1000
,
1000
1000
0001
0000
,
0001
0000
0010
0000
,
1000
0100
1000
0000
,
0001
0001
0000
0000
0001
0001
0000
0000
,
1000
0010
0010
0000
,
1000
0000
0001
0010
,
0010
0100
0100
0000
,
1000
1000
0000
0000
1000
1000
0000
0000
,
0001
1000
1000
0001
,
0001
0000
1000
0010
,
1000
0000
1001
0000
,
0001
0000
0010
0001
,
1000
0001
1000
0000
,
0100
0000
0010
0000
,
1000
0001
0100
0000
,
1000
0000
0010
1000
,
0001
1000
0001
0000
,
0010
1000
0100
0001
,
0010
0000
0110
0000
,
0001
0000
0100
0000
,
1000
0000
1000
0010
,
0010
0000
0001
0100
,
0001
0100
1000
0000
,
0100
0000
0001
0000
,
1000
0000
0100
0010
,
1000
0000
0001
0100
,
1000
0010
0001
0000
,
0110
0000
0010
0001
,
0001
0100
1000
0000
,
0010
0000
0010
0000
,
0100
1000
0001
0000
,
1001
0000
0010
0001
,
1000
0010
1000
0000
,
0010
0000
0001
0000
,
0100
1000
0001
1000
,
0110
0000
0000
0000
;

//---------------dance-single - ----------------
#NOTES:
     dance-single:
     :
     Hard:
     5:
     0.308250,0.373502,0.281446,0.000000,0.000000,184.000000,160.000000,24.000000,0.000000,0.000000,0.000000,0.308250,0.373502,0.281446,0.000000,0.000000,184.000000,160.000000,24.000000,0.000000,0.000000,0.000000:
0000
0000
0000
0000
,
0000
0000
0000
0000
,
0000
0000
0000
0000
,
0000
0000
0000
0000
,
0000
0000
0000
0000
,
0010
1001
1000
0010
,
0100
0001
1000
0010
,
0010
1001
0001
0010
,
0100
1000
0001
0010
,
0001
1000
0001
0100
,
1001
1001
0100
0000
,
0010
0100
0010
0001
,
0001
0100
0001
1000
,
1000
0001
1000
0100
,
1001
1001
0100
0000
,
0010
0100
0010
1000
,
1000
0100
0010
0010
,
0001
0000
0101
0000
,
1000
0001
0100
0100
,
0010
1000
0010
0100
,
0001
0001
1000
0100
,
1000
0000
1100
0000
,
0010
0010
1001
0001
,
0010
0001
0010
0100
,
1000
0010
0100
0001
,
0001
1000
1000
0100
,
1001
1001
0110
0000
,
0010
0100
0010
0100
,
1000
0100
0001
0100
,
1000
0001
0001
0100
,
1001
1001
0110
0000
,
0010
0010
0010
0000
0100
0100
0100
0000
,
0010
0100
0110
0000
,
1000
0000
0100
0100
,
0001
0000
0100
1000
,
0010
0000
0010
0001
,
0100
0000
1000
0100
,
1000
0000
0001
0100
,
0001
0000
0100
0010
,
1000
0000
0010
0001
,
0100
1000
0010
0000
,
0001
1000
0001
1000
,
0110
1001
0110
0000
,
0010
0100
1000
0001
,
0001
0100
0010
1000
,
0001
1000
0001
1001
,
0110
1001
0110
0000
,
0010
0001
1000
0100
,
1000
0100
0010
0100
,
1001
0000
0000
0000
;

//---------------dance-single - ----------------
#NOTES:
     dance-single:
     :
     Challenge:
     7:
     0.422169,0.459695,0.199357,0.000000,0.005863,252.000000,235.000000,17.000000,0.000000,0.000000,0.000000,0.422169,0.459695,0.199357,0.000000,0.005863,252.000000,235.000000,17.000000,0.000000,0.000000,0.000000:
0000
0000
0000
0000
,
0000
0000
0000
0000
,
0000
0000
0000
0000
,
0000
0000
0000
0000
,
0000
0000
0000
0000
,
1000
0101
0001
1000
,
1000
0001
0001
0100
,
0001
1100
1000
0001
,
1000
0000
0001
0000
1000
0000
0100
0100
,
1000
0000
1000
0100
0001
0000
0100
0000
,
0010
0100
0110
0000
,
0001
0000
1000
0000
0100
0010
0100
0000
,
1000
0000
0100
0000
0010
0100
0010
0000
,
0001
0000
0001
0100
1000
0000
0100
0000
,
0010
0100
0110
0000
,
1000
0000
0001
0000
0100
0010
0100
0000
,
0001
1000
0010
0100
0001
0010
0100
1000
,
0000
0001
0001
0001
0000
1000
1000
1000
,
0000
0001
0010
0001
0100
0000
0100
0000
,
0101
0000
1010
0000
0001
1000
0100
0000
,
0010
0100
1000
1001
,
0000
1000
1000
1000
0000
0001
0001
0001
,
0010
0010
0010
0100
0010
0000
0010
0000
,
1100
0000
0011
0000
1000
0001
0100
0000
,
0010
0010
1000
0001
0100
0000
0100
0000
,
0001
0000
1000
0100
0001
0100
1000
0000
,
0010
1000
0100
1000
0010
0000
0000
0000
,
0001
0001
1000
0000
0100
0010
0100
0000
,
1000
0001
0010
0100
1000
0000
1001
0000
,
1000
0000
0001
0100
1000
0100
0001
0000
,
0010
0001
0100
0001
0010
0000
0000
0000
,
0100
1000
0100
0010
0001
0010
0100
0010
,
0001
0000
0000
1000
0000
0000
0001
0000
0100
0000
0000
0000
0000
0000
0000
0000
,
1000
0001
0100
0101
,
0010
0000
1000
0000
0010
1000
0001
0000
,
0100
0001
1001
1100
,
0010
1000
0100
0000
0010
0001
0100
0000
,
0001
1000
0010
1010
,
0010
0000
0100
0000
0010
1000
0001
0000
,
0100
0001
1001
0011
,
0100
1000
0001
0100
0010
0000
0000
0000
,
0001
0001
1000
0100
0010
0100
1000
0100
,
0010
0001
0100
1000
0100
0000
0000
0000
,
0001
0001
0001
0000
0100
0010
1000
0000
,
0001
0010
0100
0000
0010
0100
0010
0000
,
0001
0001
1000
0100
0010
0001
1000
0010
,
0100
0001
0100
1000
0100
0000
0000
0000
,
0001
1000
0001
0001
0100
0010
1000
0000
,
0001
0010
0100
1000
0010
0100
0010
0000
,
1001
0000
0000
0000
;
