#TITLE:Deep Freeze;
#SUBTITLE:;
#ARTIST:From Dr. Mario;
#TITLETRANSLIT:;
#SUBTITLETRANSLIT:;
#ARTISTTRANSLIT:;
#GENRE:;
#CREDIT:;
#BANNER:Deep Freeze.png;
#BACKGROUND:Deep Freeze-bg.png;
#LYRICSPATH:;
#CDTITLE:;
#MUSIC:Deep Freeze.ogg;
#OFFSET:1.619092;
#SAMPLESTART:6.440000;
#SAMPLELENGTH:15.000000;
#LASTBEATHINT:1.511296;
#SELECTABLE:YES;
#DISPLAYBPM:148.000000;
#BPMS:0.000000=148.000000
;
#STOPS:
;
#BGCHANGES:3.000=Deep Freeze.avi=1.000=1=0=1===CrossFade==,
240.000=Deep Freeze-bg.png=1.000=1=0=1===CrossFade==,
99999=-nosongbg-=1.000=0=0=0 // don't automatically add -songbackground-
;
#KEYSOUNDS:;
#ATTACKS:;

//---------------dance-single - ----------------
#NOTES:
     dance-single:
     :
     Beginner:
     2:
     0.188677,0.240903,0.116225,0.000000,0.000000,125.000000,114.000000,11.000000,0.000000,0.000000,0.000000,0.188677,0.240903,0.116225,0.000000,0.000000,125.000000,114.000000,11.000000,0.000000,0.000000,0.000000:
0000
0000
0000
0000
,
0000
0000
0000
0000
,
0000
0000
0000
0000
,
0000
0000
0000
0000
,
0000
0000
0000
0000
,
0001
0000
1000
0000
,
0001
0001
0001
0000
,
1000
0000
0001
0000
,
1000
1000
1000
0000
,
0001
0000
1000
0000
,
0001
1000
0001
0000
,
1000
0000
0001
0000
,
1000
0001
1000
0000
,
1001
0000
0001
0001
,
1000
0000
0000
0000
,
1001
0000
1000
1000
,
0001
0000
0000
0000
,
1001
0000
0001
0001
,
1000
0000
0001
0000
,
1001
0000
0001
1000
,
0001
0000
1000
0000
,
0001
0000
1000
0000
,
0001
0001
0001
0000
,
1000
0000
0001
0000
,
1000
1000
1000
0000
,
0001
0000
1000
0000
,
0001
1000
0001
0000
,
1000
0000
0001
0000
,
1000
0001
1000
0000
,
0001
0000
0001
0000
,
1000
1000
1000
0000
,
0001
0000
1000
0000
,
0001
1000
0001
0000
,
1001
0000
0000
0000
,
1000
1000
0000
0000
,
0001
0000
0000
0000
,
0000
0000
0000
0000
,
1000
1000
0000
0000
,
0001
0000
1000
0000
,
0001
0001
0000
0000
,
1000
0000
0000
0000
,
1000
0001
0000
0000
,
1000
0000
1000
0000
,
0001
1000
0000
0000
,
1001
0000
0000
0000
,
1000
0000
0001
0001
,
0001
0000
0000
0000
,
1001
0000
1000
1000
,
1000
0000
0000
0000
,
1001
0000
0001
1000
,
0001
0000
0000
0000
,
1001
0000
1000
0001
,
1000
0000
1001
0000
,
0001
0001
0000
0000
0000
0000
0000
0000
,
1000
0000
0001
0001
0000
0000
0000
0000
,
1000
1000
0000
0000
0000
0000
0000
0000
,
0001
0000
1000
1000
0000
0000
0000
0000
,
1001
0000
0000
0000
;

//---------------dance-single - ----------------
#NOTES:
     dance-single:
     :
     Easy:
     3:
     0.221884,0.271610,0.063395,0.000000,0.000000,147.000000,141.000000,6.000000,0.000000,0.000000,0.000000,0.221884,0.271610,0.063395,0.000000,0.000000,147.000000,141.000000,6.000000,0.000000,0.000000,0.000000:
0000
0000
0000
0000
,
0000
0000
0000
0000
,
0000
0000
0000
0000
,
0000
0000
0000
0000
,
0000
0000
0000
0000
,
0010
0000
1000
0000
,
0100
1000
0001
0000
,
0010
0000
0001
0000
,
1000
0001
1000
1000
,
0010
0000
1000
0000
,
0100
0001
1000
0000
,
0010
0000
0100
0000
,
0010
0001
0001
1000
,
1000
0000
0100
0001
,
0001
0000
0010
0000
,
0100
0000
0001
1000
,
0100
0000
1000
0000
,
0010
0000
0100
0001
,
0001
0000
1000
0000
,
0001
0000
0001
1000
,
0010
0000
1001
0000
,
0010
0000
0001
0000
,
0100
1000
0001
0000
,
0010
0000
1000
0000
,
0001
1000
0001
0001
,
0010
0000
0001
0000
,
0010
1000
0001
0000
,
0010
0100
0001
0000
,
0010
0010
0110
0000
,
0010
0001
0001
0000
,
0100
1000
1000
0000
,
0010
0000
1000
0000
,
1000
0001
1000
0001
,
1000
0001
0000
0000
0000
0000
0000
0000
,
1000
0000
0001
0001
0000
0000
0000
0000
,
0001
1000
0000
0000
0000
0000
0000
0000
,
0000
0000
0000
0010
,
1000
0000
0100
1000
,
0001
0001
0010
0000
,
0001
0000
0100
0001
,
0010
0001
0010
0000
,
0010
0000
0100
1000
,
1000
0001
0010
0000
,
0010
0000
0100
0001
,
0001
0000
0110
0000
,
1000
0000
0010
0001
,
0001
0000
0001
0000
,
0100
0000
0001
0100
,
0100
0000
0010
0000
,
0010
0000
0100
0010
,
0001
1000
1000
0000
,
0100
0000
0001
1000
,
0100
0000
1001
0000
,
0010
0001
0000
0000
0000
0000
0000
0000
,
1000
0000
0001
1000
0000
0000
0000
0000
,
0010
1000
0000
0000
0000
0000
0000
0000
,
0010
0010
1000
0001
,
1001
1001
0000
0000
0000
0000
0000
0000
;

//---------------dance-single - ----------------
#NOTES:
     dance-single:
     :
     Medium:
     4:
     0.286789,0.301789,0.073961,0.000000,0.000000,190.000000,183.000000,7.000000,0.000000,0.000000,0.000000,0.286789,0.301789,0.073961,0.000000,0.000000,190.000000,183.000000,7.000000,0.000000,0.000000,0.000000:
0000
0000
0000
0000
,
0000
0000
0000
0000
,
0000
0000
0000
0000
,
0000
0000
0000
0000
,
0000
0000
0000
0000
,
0001
0001
0100
0010
,
1000
0001
0100
0001
,
1000
1000
0100
0010
,
0100
1000
0001
0100
,
0001
0001
0100
0010
,
0001
1000
0100
1000
,
0001
0001
1000
0010
,
1000
0010
1000
1000
,
1001
0000
0001
1000
,
0001
0001
1000
0100
,
1000
0000
0010
0100
,
0001
1000
1000
0001
,
1001
0000
0010
1000
,
0001
0100
1000
0100
,
0001
0000
1000
0010
,
0100
0100
0100
0010
,
1000
1000
0100
0010
,
1000
0001
0100
0001
,
0001
0001
0100
0010
,
0100
0001
1000
0100
,
1000
1000
0100
0010
,
0001
0001
0100
0001
,
1000
1000
0001
0010
,
0001
1000
0100
0000
,
1000
1001
0001
0010
,
0010
0001
0100
0001
,
0001
0001
0100
0010
,
0010
1000
0001
0100
,
0010
0100
0000
0000
0000
0000
0000
0000
,
0010
0000
0100
0010
0000
0000
0000
0000
,
0010
0100
0000
0000
0000
0000
0000
0000
,
0000
0000
0000
0110
,
0001
0000
0001
0100
,
0010
1000
0100
0000
,
1000
0000
1000
0100
,
0010
0100
0100
0000
,
0001
0000
0001
1000
,
0010
0100
0001
0000
,
1000
0000
1000
0001
,
0001
1000
0001
1000
,
1001
0000
0100
1000
,
0001
0010
1000
0010
,
1000
0000
0010
1000
,
0001
1000
1000
0010
,
1001
0000
0001
0100
,
1000
0100
1000
0100
,
0001
0000
1000
0001
,
0100
0100
0010
0010
,
0010
0100
0000
0000
0001
0000
0000
0000
,
0010
0000
0100
1000
0000
0000
0000
0000
,
0010
0100
0000
0000
1000
0000
0000
0000
,
0001
0010
0100
1000
,
0010
1001
0000
0000
0000
0000
0000
0000
;

//---------------dance-single - ----------------
#NOTES:
     dance-single:
     :
     Hard:
     6:
     0.357732,0.362147,0.211318,0.000000,0.000000,237.000000,217.000000,20.000000,0.000000,0.000000,0.000000,0.357732,0.362147,0.211318,0.000000,0.000000,237.000000,217.000000,20.000000,0.000000,0.000000,0.000000:
0000
0000
0000
0000
,
0000
0000
0000
0000
,
0000
0000
0000
0000
,
0000
0000
0000
0000
,
0000
0000
0000
0000
,
1000
0000
1000
0000
0001
0100
0001
0000
,
0010
0100
0110
1000
,
0001
0000
0001
0000
1000
0100
1000
0000
,
0010
1001
0100
1001
,
0001
0000
0001
0000
1000
0010
1000
0000
,
0001
0000
0010
0100
0010
0000
1000
0000
,
0010
0000
0010
0000
0001
1000
0100
0000
,
0001
0101
1000
1100
,
0001
0100
1000
0100
,
0001
0100
1000
0100
,
0001
0010
0001
0100
,
0001
0000
0010
0000
0001
1000
1000
0000
,
1000
0010
0001
0010
,
1000
0010
0001
0010
,
1000
0010
1000
0100
,
0001
1001
0100
0110
,
0001
0000
0001
0000
1000
0100
1000
0000
,
0010
0100
0110
0010
,
1000
0000
1000
0000
0001
0100
0001
0000
,
0010
1001
0100
1001
,
0010
0000
0010
0000
0001
0010
0001
0000
,
1000
0000
0010
0100
0010
0000
0001
0000
,
0100
0000
0100
0000
1000
0001
0100
0000
,
0010
0000
1000
0001
0100
0000
0100
0000
,
1000
1000
0001
0001
,
0010
0000
0001
0100
0001
0000
1000
0000
,
0010
0010
0100
0100
,
1000
1100
0001
0101
,
1000
1000
0000
0000
0000
0000
0000
0000
,
0010
0000
0100
0100
0000
0000
0000
0000
,
0001
0001
0000
0000
0000
0000
0000
0000
,
0000
0000
0000
1100
,
0001
0100
1000
0100
,
0001
0010
1000
0010
,
0001
0001
1000
1000
,
0010
0011
0100
1100
,
0010
0001
0100
0001
,
1000
0010
1000
0100
,
0010
0010
0100
0100
,
0001
1100
1000
0101
,
0010
1000
0010
0100
,
0001
0010
0001
0000
1000
0100
1000
0000
,
0001
1000
0100
0001
,
1000
0010
1000
0000
0001
0100
0001
0000
,
0010
0100
0001
1000
,
0001
1000
0001
0000
0010
0100
0010
0000
,
0001
0010
0100
1000
,
0010
1001
0100
1001
,
0100
0010
0000
0000
0001
0000
0000
0000
,
1000
0000
0100
0100
0000
0000
0000
0000
,
0010
0001
0000
0000
0100
0000
0000
0000
,
1000
0000
0010
0010
0000
0000
0000
0000
,
1000
1001
0000
0000
0000
0000
0000
0000
;

//---------------dance-single - ----------------
#NOTES:
     dance-single:
     :
     Challenge:
     8:
     0.403014,0.422504,0.179620,0.000000,0.000000,267.000000,250.000000,17.000000,0.000000,0.000000,0.000000,0.403014,0.422504,0.179620,0.000000,0.000000,267.000000,250.000000,17.000000,0.000000,0.000000,0.000000:
0000
0000
0000
0000
,
0000
0000
0000
0000
,
0000
0000
0000
0000
,
0000
0000
0000
0000
,
0000
0000
0000
0000
,
1000
0000
0010
0000
1000
0000
0001
0100
,
0010
0100
1001
1000
,
0001
0000
0010
0000
0001
0000
1000
0100
,
1000
0000
0010
0000
0010
1000
0001
0000
,
1000
0000
0010
0000
1000
0000
0001
0100
,
0010
0100
1001
0001
,
1000
1000
0010
0000
1000
0001
0001
0000
,
0100
1001
1001
0010
,
1000
0001
0010
0001
,
0100
0001
1000
0001
0100
0000
0001
0000
,
0010
0001
1000
0100
,
0010
0001
1000
0010
0100
0001
0001
0000
,
0100
0001
0010
0001
,
0100
0010
1000
0010
0100
0000
0001
0000
,
1000
0010
0100
0001
,
1000
0010
0100
0100
0001
0010
0100
1000
,
0001
0000
0010
0000
0001
0000
1000
0100
,
0010
0100
1001
1000
,
1000
0000
0010
0000
1000
0000
0001
0100
,
0001
0000
0010
0000
0010
0001
1000
0000
,
0001
0000
0010
0000
0001
0000
1000
0100
,
0010
0010
1001
0100
,
0001
0001
0010
0000
0001
1000
1000
0000
,
0010
0010
0100
0100
0001
0000
1001
0000
,
1000
0000
0010
0000
1000
0000
0100
1000
,
0010
0100
0101
1000
,
1000
0000
0010
0000
1000
0000
0001
0100
,
0001
0000
0010
0000
0100
1000
0001
1000
,
0001
0100
0000
0000
0000
0000
0000
0000
,
0001
0000
0100
0101
0000
0000
0000
0000
,
1000
0100
0000
0000
0000
0000
0000
0000
,
0000
0000
0000
0011
,
1000
0000
0001
0000
1000
0010
0000
0100
,
0000
0010
1000
0001
0100
0000
0000
0000
,
0001
0000
1000
0000
0001
0010
0000
0100
,
0000
0010
0100
1000
0100
0000
0000
0000
,
1000
0000
0001
0000
0100
0010
0000
1000
,
0000
0010
0100
0001
0010
0000
0000
0000
,
0001
0000
1000
0000
0100
0010
0000
0001
,
0010
1001
0100
0110
,
1000
0000
0001
0000
0010
0010
0001
0000
,
0100
0001
1000
0001
0100
0000
0010
0000
,
0100
0000
0001
0000
1000
0100
0100
0000
,
0010
0001
0100
0010
1000
0001
0001
0000
,
0100
0000
0001
0000
1000
1000
0001
0000
,
0100
0010
1000
0010
0100
0001
1000
0000
,
1000
0010
0100
0110
,
1000
0001
0100
0100
0001
0010
0001
1000
,
0001
0010
0000
0000
0001
0000
0000
1000
,
0001
0000
0010
0011
0001
1000
0000
0000
,
1000
0010
0000
0000
1000
0000
0000
0001
,
0100
0000
1010
1000
0000
0000
0000
0000
,
1001
0101
0000
0000
0000
0000
0000
0000
;
