#TITLE:Credits;
#SUBTITLE:;
#ARTIST:From Super Mario Bros;
#TITLETRANSLIT:;
#SUBTITLETRANSLIT:;
#ARTISTTRANSLIT:;
#GENRE:;
#CREDIT:;
#BANNER:Credits.png;
#BACKGROUND:Credits-bg.png;
#LYRICSPATH:;
#CDTITLE:;
#MUSIC:Credits.ogg;
#OFFSET:2.996890;
#SAMPLESTART:0.040000;
#SAMPLELENGTH:15.000000;
#LASTBEATHINT:3.322948;
#SELECTABLE:YES;
#DISPLAYBPM:100.000000;
#BPMS:0.000000=100.165001
;
#STOPS:
;
#BGCHANGES:4.500=Credits.avi=1.000=1=0=1===CrossFade==,
181.000=Credits-bg.png=1.000=1=0=1===CrossFade==,
99999=-nosongbg-=1.000=0=0=0 // don't automatically add -songbackground-
;
#KEYSOUNDS:;
#ATTACKS:;

//---------------dance-single - ----------------
#NOTES:
     dance-single:
     :
     Beginner:
     1:
     0.115141,0.129867,0.019658,0.000000,0.000000,82.000000,80.000000,2.000000,0.000000,0.000000,0.000000,0.115141,0.129867,0.019658,0.000000,0.000000,82.000000,80.000000,2.000000,0.000000,0.000000,0.000000:
0000
0000
0000
0000
,
0000
0000
0000
0000
,
0000
0000
0000
0000
,
0000
0000
0000
0000
,
0000
1000
0000
1000
,
0000
0001
0000
0010
,
0000
0100
0000
0001
,
0000
0001
0000
1000
,
0000
0100
0000
1000
,
0000
0001
0001
0001
,
0000
0100
0000
0001
,
0000
1000
0000
0001
,
0000
0100
0000
1000
,
0000
1000
1000
1000
,
0000
0010
0000
0001
,
0001
0010
0000
0100
,
0000
0010
0000
1000
,
1000
0100
0000
1001
,
0000
0001
0000
0001
,
0000
1000
0000
0010
,
0000
1000
0000
1000
,
0000
0001
0000
0010
,
0000
0010
0000
1000
,
0000
0001
0001
0010
,
0000
0010
0000
0001
,
0000
1000
1000
0100
,
0000
0010
0000
1000
,
0000
1000
1000
0010
,
0000
0010
0000
0001
,
0000
0001
0001
0100
,
0000
0010
0000
0001
,
0001
0010
0000
0100
,
0000
0010
0000
1000
,
1000
0100
0000
1001
,
0000
0010
0000
1000
,
0000
0001
0001
0010
,
0000
0010
0000
0001
,
0000
1000
1000
0100
;

//---------------dance-single - ----------------
#NOTES:
     dance-single:
     :
     Easy:
     2:
     0.147436,0.148419,0.049145,0.000000,0.000000,105.000000,100.000000,5.000000,0.000000,0.000000,0.000000,0.147436,0.148419,0.049145,0.000000,0.000000,105.000000,100.000000,5.000000,0.000000,0.000000,0.000000:
0000
0000
0000
0000
,
0000
0000
0000
0000
,
0000
0000
0000
0000
,
0000
0000
0000
0000
,
0000
0010
0000
0001
,
0001
0100
0000
0010
,
1000
1000
0000
0001
,
0000
1000
1000
0001
,
0001
0001
0000
1000
,
0000
0010
1000
0100
,
0000
1000
0000
0001
,
0000
0001
0001
1000
,
1000
0001
0000
1000
,
0000
0010
0001
0100
,
0000
1000
0000
1000
,
0010
0010
1000
1000
,
0000
0001
0000
0001
,
0010
0010
0010
0110
,
0000
0010
0000
1000
,
1000
0100
0000
0010
,
0001
0010
0000
0001
,
0001
0100
0000
0010
,
1000
0010
0000
0001
,
1000
0100
0100
0010
,
0000
0010
0000
1000
,
0001
0001
0001
1001
,
0000
0010
0000
0001
,
1000
0100
0100
0010
,
0000
0010
0000
1000
,
0001
1000
1000
1001
,
0000
1000
0000
1000
,
0010
0010
0001
0001
,
0000
0001
0000
0001
,
0010
0010
0010
0110
,
0000
0010
0000
0001
,
1000
0100
0100
0010
,
0000
0010
0000
1000
,
0001
0001
0001
1001
;

//---------------dance-single - ----------------
#NOTES:
     dance-single:
     :
     Medium:
     4:
     0.203602,0.224103,0.078633,0.000000,0.009829,145.000000,137.000000,8.000000,0.000000,0.000000,0.000000,0.203602,0.224103,0.078633,0.000000,0.009829,145.000000,137.000000,8.000000,0.000000,0.000000,0.000000:
0000
0000
0000
0000
,
0000
0000
0000
0000
,
0000
0000
0000
0000
,
0000
0000
0000
0000
,
0000
0010
0000
1000
,
0100
0010
0001
1000
,
0010
0100
0001
0001
,
1000
0100
0001
0100
,
1000
0100
1000
1000
,
0001
0000
0000
0000
1000
0000
1000
0000
0000
1000
0000
0000
1000
0000
0000
0000
,
0000
0100
0001
0001
,
1000
0100
1000
0100
,
0001
0100
1000
1000
,
0001
0000
0000
0000
0001
0000
0001
0000
0000
0001
0000
0000
0001
0000
0000
0000
,
0000
0010
1000
1000
,
0001
0100
1000
0100
,
0000
0010
0001
0001
,
1000
1000
0001
1001
,
0100
0010
0000
0001
,
0100
0010
1000
0001
,
0010
0010
0000
1000
,
0100
0010
0001
1000
,
0010
1000
0001
1000
,
0010
0000
0010
0000
1001
0000
1000
1000
,
1000
0001
1000
0001
,
0010
0000
0100
0000
0110
0000
0001
0001
,
0001
1000
0001
1000
,
0010
0000
0010
0000
1001
0000
0001
0001
,
0001
0001
1000
0001
,
0010
0000
0100
0000
0110
0000
1000
1000
,
1000
0010
1000
1000
,
0001
0100
0001
0100
,
0000
0010
0001
0001
,
1000
0001
1000
1001
,
0100
1000
0001
1000
,
0010
0000
0010
0000
1001
0000
1000
1000
,
1000
0001
1000
0001
,
0010
0000
0100
0000
0110
0000
0001
0001
,
0001
0000
0000
0000
;

//---------------dance-single - ----------------
#NOTES:
     dance-single:
     :
     Hard:
     6:
     0.299085,0.317479,0.206411,0.000000,0.108120,213.000000,192.000000,21.000000,0.000000,0.000000,0.000000,0.299085,0.317479,0.206411,0.000000,0.108120,213.000000,192.000000,21.000000,0.000000,0.000000,0.000000:
0000
0000
0000
0000
,
0000
0000
0000
0000
,
0000
0000
0000
0000
,
0000
0000
0000
0000
,
0000
0000
0001
0000
1000
0000
1000
0001
,
0100
0000
0010
0000
1000
0000
0001
0100
,
0001
1000
1010
0100
,
0001
1000
0010
0000
1001
0000
0010
0010
,
1000
0001
0011
0100
,
1000
0000
0001
0000
0100
0000
0010
0000
0000
0110
0000
0000
1001
0000
0000
0000
,
0000
1000
1010
0100
,
0001
1000
0010
0000
1001
0000
0010
0010
,
0001
0001
0011
0100
,
1000
0000
0001
0000
0100
0000
0010
0000
0000
0110
0000
0000
1001
0000
0000
0000
,
0000
0000
0000
0000
1000
0000
0000
0001
0000
0000
0010
0000
0100
0000
0000
1000
,
0000
0000
0001
0000
1000
0000
0000
0100
0000
0000
0001
0000
0001
0000
0000
0100
,
0000
0000
1000
0000
0001
0000
0000
1000
0000
0000
0010
0000
0100
0000
0000
0001
,
0000
0000
1000
0000
0010
0000
0000
0010
0000
0000
0100
0000
1001
0000
0000
0000
,
0100
0000
1000
0000
0001
0000
0001
1000
,
0100
0000
0010
0000
0001
0000
1000
0100
,
1000
0000
0001
0000
1000
0000
1000
0001
,
0100
0000
0010
0000
1000
0000
0001
0100
,
0001
0000
1000
0001
0100
0000
0001
1000
,
0100
0000
0000
0000
1001
0000
0010
0000
0010
0000
0010
0000
0001
1000
0000
1000
,
0001
0000
0001
1000
0100
0000
1000
0001
,
0100
0000
0010
0000
0110
0110
0001
1000
,
0001
0000
1000
0001
0100
0000
0001
1000
,
0100
0000
0000
0000
1001
0000
0010
0000
0010
0000
0010
0000
1000
0001
0000
0001
,
1000
0000
0001
1000
0100
0000
1000
0001
,
0100
0000
0010
0000
0110
0110
1000
0001
,
1000
0000
0000
0000
1000
0000
0000
0001
0000
0000
0010
0000
0100
0000
0000
1000
,
0000
0000
0001
0000
0001
0000
0000
0100
0000
0000
1000
0000
1000
0000
0000
0100
,
0000
0000
0001
0000
0001
0000
0000
1000
0000
0000
0010
0000
0100
0000
0000
0001
,
0000
0000
1000
0000
0010
0000
0000
0010
0000
0000
0100
0000
1001
0000
0000
0000
,
0100
0000
1000
0001
0100
0000
0001
1000
,
0100
0000
0000
0000
1001
0000
0010
0000
0010
0000
0010
0000
0001
1000
0000
1000
,
0001
0000
0001
1000
0100
0000
1000
0001
,
0100
0000
0010
0000
0110
0110
0001
1000
,
0001
0000
0000
0000
;
