#TITLE:Choir on the Green;
#SUBTITLE:;
#ARTIST:From Ah, Lovely Meadow;
#TITLETRANSLIT:;
#SUBTITLETRANSLIT:;
#ARTISTTRANSLIT:;
#GENRE:;
#CREDIT:;
#BANNER:Choir on the Green.png;
#BACKGROUND:Choir on the Green-bg.png;
#LYRICSPATH:;
#CDTITLE:;
#MUSIC:Choir on the Green.ogg;
#OFFSET:1.804655;
#SAMPLESTART:42.970009;
#SAMPLELENGTH:15.000000;
#LASTBEATHINT:1.782760;
#SELECTABLE:YES;
#DISPLAYBPM:134.000000;
#BPMS:0.000000=134.000000
;
#STOPS:
;
#BGCHANGES:3.667=Choir On The Green.avi=1.000=1=0=1===CrossFade==,
203.000=Choir on the Green-bg.png=1.000=1=0=1===CrossFade==,
99999=-nosongbg-=1.000=0=0=0 // don't automatically add -songbackground-
;
#KEYSOUNDS:;
#ATTACKS:;

//---------------dance-single - ----------------
#NOTES:
     dance-single:
     :
     Beginner:
     1:
     0.075202,0.136504,0.000000,0.000000,0.000000,47.000000,47.000000,0.000000,0.000000,0.000000,0.000000,0.075202,0.136504,0.000000,0.000000,0.000000,47.000000,47.000000,0.000000,0.000000,0.000000,0.000000:
0000
0000
0000
0000
,
0000
0000
0000
0000
,
0000
0000
0000
0000
,
0000
0000
0000
0000
,
0000
0000
0000
0000
,
0000
0000
0000
0000
,
0000
0000
0000
0000
,
0000
0000
0000
0000
,
0000
0000
0000
0000
,
1000
0000
0000
0000
,
0001
0000
0000
0000
,
1000
0000
0000
0000
,
0001
0000
0001
0000
,
0001
0000
0000
0000
,
1000
0000
0000
0000
,
0001
0000
0000
0000
,
1000
0000
0001
0000
,
1000
0000
0000
0000
,
0000
0000
0000
0000
,
0001
0000
0000
0000
,
0000
0000
0000
0000
,
0001
0000
0000
0000
,
0000
0000
0000
0000
,
1000
0000
0000
0000
,
0001
0000
0000
0000
,
1000
0000
0000
0000
,
0001
0000
0000
0000
,
0001
0000
0000
0000
,
1000
0000
1000
0000
,
0001
0000
0000
0000
,
1000
0000
0000
0000
,
1000
0000
0000
0000
,
0001
0000
1000
0000
,
1000
0000
0000
0000
,
0001
0000
0000
0000
,
1000
0000
0000
0000
,
0001
0000
0001
0000
,
0001
0000
0000
0000
,
1000
0000
0000
0000
,
0001
0000
0000
0000
,
1000
0000
0001
0000
,
1000
0000
0000
0000
,
0001
0000
0000
0000
,
1000
0000
1000
0000
,
0001
0000
0001
0000
,
0001
0000
0000
0000
,
1000
0000
0000
0000
,
0001
0000
1000
0000
,
0001
0000
0000
0001
;

//---------------dance-single - ----------------
#NOTES:
     dance-single:
     :
     Easy:
     2:
     0.097603,0.163805,0.011200,0.000000,0.000000,61.000000,60.000000,1.000000,0.000000,0.000000,0.000000,0.097603,0.163805,0.011200,0.000000,0.000000,61.000000,60.000000,1.000000,0.000000,0.000000,0.000000:
0000
0000
0000
0000
,
0000
0000
0000
0000
,
0000
0000
0000
0000
,
0000
0000
0000
0000
,
0000
0000
0000
0000
,
0000
0000
0000
0000
,
0000
0000
0000
0000
,
0000
0000
0000
0000
,
0000
0000
0000
0000
,
0001
0000
1000
0000
,
0001
0000
0000
0000
,
0010
0000
0000
0000
,
1000
0000
0000
0000
,
1000
0000
0001
0000
,
1000
0000
0000
0000
,
0001
0000
0001
0000
,
1000
1000
1000
0000
,
0010
0000
0000
0000
,
0000
0000
0000
0000
,
0001
0000
0000
0000
,
1000
0000
0000
0000
,
0100
0000
0000
0000
,
0000
0000
0000
0000
,
1000
0000
0000
0000
,
0001
0000
0000
0000
,
0001
0000
1000
0000
,
0001
0000
0000
0000
,
0010
0000
0000
0000
,
0001
0000
0000
0000
,
1000
0000
0001
0000
,
1000
0000
0000
0000
,
1000
0000
1000
0000
,
0001
0001
0001
0000
,
0001
0000
0010
0000
,
0001
0000
0000
0000
,
0100
0000
0000
0000
,
1000
0000
0000
0000
,
1000
0000
0010
0000
,
1000
0000
0000
0000
,
0010
0000
0001
0000
,
1000
1000
0010
0000
,
0001
0000
0000
0000
,
1000
0000
0000
0000
,
0001
0000
0010
0000
,
1000
0000
0010
0000
,
0001
0000
0001
0000
,
1000
0000
1000
0000
,
0001
0000
0010
0010
,
0010
0000
0000
1001
;

//---------------dance-single - ----------------
#NOTES:
     dance-single:
     :
     Medium:
     3:
     0.214407,0.245707,0.112003,0.000000,0.000000,134.000000,124.000000,10.000000,0.000000,0.000000,0.000000,0.214407,0.245707,0.112003,0.000000,0.000000,134.000000,124.000000,10.000000,0.000000,0.000000,0.000000:
0000
0000
0000
0000
,
0000
0000
0000
0000
,
0000
0000
0000
0000
,
0000
0000
0000
0000
,
0000
0000
0000
0000
,
0000
0000
0000
0000
,
0000
0000
0000
0000
,
0000
0000
0000
0000
,
0100
0000
0000
0110
,
0010
0000
1000
0010
,
1000
1000
0100
0000
,
0001
0000
0001
1000
,
1000
0000
0001
0001
,
0010
0000
0001
0010
,
0001
0001
0100
0000
,
0010
0000
1000
0010
,
1000
1000
1001
0000
,
0001
1000
0001
0000
,
0001
0010
0001
1000
,
1000
0000
0010
0100
,
0010
0000
1001
0001
,
0001
0100
0001
0000
,
0010
0010
0001
1000
,
1000
0000
0001
0100
,
0100
0000
0110
0010
,
0010
0000
1000
0001
,
1000
1000
0100
0000
,
1000
0000
1000
0001
,
0001
0000
1000
1000
,
0010
0000
0001
1000
,
0001
0001
0100
0000
,
0010
0000
0001
0010
,
0001
0001
1001
0000
,
0100
0000
1000
0001
,
0001
1000
0100
0000
,
0001
0000
0001
0010
,
0001
0000
0100
1000
,
0100
0000
0001
1000
,
1000
0001
0100
0000
,
0100
0000
0001
0010
,
0010
0001
1001
0000
,
1000
0000
0100
1000
,
0001
0000
0100
0001
,
1000
0000
1001
1000
,
0001
0000
1001
0001
,
1000
0000
0010
1000
,
0001
0000
0010
0001
,
1000
0000
1001
0010
,
0100
0000
0010
0110
;

//---------------dance-single - ----------------
#NOTES:
     dance-single:
     :
     Hard:
     5:
     0.265608,0.327610,0.145604,0.000000,0.000000,166.000000,153.000000,13.000000,0.000000,0.000000,0.000000,0.265608,0.327610,0.145604,0.000000,0.000000,166.000000,153.000000,13.000000,0.000000,0.000000,0.000000:
0000
0000
0000
0000
,
0000
0000
0000
0000
,
0000
0000
0000
0000
,
0000
0000
0000
0000
,
0000
0000
0000
0000
,
0000
0000
0000
0000
,
0000
0000
0000
0000
,
0000
0000
0000
0000
,
0100
0001
1000
0010
,
0100
0100
0001
1000
,
0010
1000
0100
0000
,
1000
1000
0010
0100
,
0001
0001
1000
1001
,
0100
0100
1000
0001
,
0010
0001
0100
0000
,
0010
0010
1000
0001
,
0010
0100
0110
0000
,
1000
0000
0000
0001
0001
0000
1000
0000
,
0010
0000
0000
1000
1000
0000
0001
0000
,
0100
0000
0000
0010
0010
0000
1000
0000
,
0001
0000
0000
0100
0100
0000
0001
0000
,
1000
0000
0000
1000
0001
0000
1000
0000
,
0010
0000
0000
0010
1000
0000
0001
0000
,
0100
0000
0000
0100
0010
0000
1000
0000
,
0001
0000
0000
1000
0100
0000
0010
0000
,
0001
0100
0001
1000
,
0010
1000
0100
0000
,
0001
0001
0010
0100
,
1000
1000
0001
1001
,
1000
0100
1000
0001
,
0010
0001
0100
0000
,
0010
0010
0001
1000
,
0010
0100
0110
0000
,
0001
0100
0010
1000
,
0001
1000
0110
0000
,
0001
1000
0010
0100
,
0010
1000
0001
1001
,
1000
0100
0010
0001
,
1000
0001
0110
0000
,
0010
1000
0001
1000
,
0010
1000
1010
0000
,
1000
0000
0001
0100
,
0001
0000
1000
0100
,
0010
0001
1000
1000
,
0010
1000
0001
0001
,
1000
1001
0001
0100
,
0001
1001
1000
0100
,
0010
0001
1001
1001
,
0100
0001
1000
0110
;

//---------------dance-single - ----------------
#NOTES:
     dance-single:
     :
     Challenge:
     7:
     0.363211,0.409512,0.268808,0.000000,0.117604,227.000000,203.000000,24.000000,0.000000,0.000000,0.000000,0.363211,0.409512,0.268808,0.000000,0.117604,227.000000,203.000000,24.000000,0.000000,0.000000,0.000000:
0000
0000
0000
0000
,
0000
0000
0000
0000
,
0000
0000
0000
0000
,
0000
0000
0000
0000
,
0000
0000
0000
0000
,
0000
0000
0000
0000
,
0000
0000
0000
0000
,
0000
0000
0000
0000
,
1000
0000
0001
1000
0100
0000
0110
0000
,
1000
0000
0000
0000
0010
0000
0000
1000
0010
0000
0000
0000
0100
0000
0000
0000
,
0001
0001
1000
0000
0100
0000
1001
0000
,
0010
0010
0000
1000
0001
0100
0100
0000
,
0001
0001
0000
0010
0100
1000
1000
0000
,
0001
0000
0000
0000
0010
0000
0000
0001
0010
0000
0000
0000
0100
0000
0000
0000
,
1000
1000
0001
0000
0100
0000
1001
0000
,
0001
1000
0000
0010
0100
0000
0001
0000
,
1010
0110
1001
0000
,
0001
0000
0000
0001
0000
0000
0010
0000
0100
0000
0000
0000
0010
0000
0000
0000
,
0010
0000
0000
0001
0000
0000
1000
0000
0100
0000
0000
0000
1000
0000
0000
0000
,
1000
0000
0000
1000
0000
0000
0100
0000
0010
0000
0000
0000
0100
0000
0000
0000
,
0100
0000
0000
1000
0000
0000
1000
0000
0001
0000
0010
0000
0100
0000
1000
0000
,
0001
0000
0000
0001
0000
0000
1000
0000
0100
0000
0000
0000
0010
0000
0000
0000
,
0010
0000
0000
0001
0000
0000
0100
0000
0001
0000
0000
0000
1000
0000
0000
0000
,
1000
0000
0000
0001
0000
0000
0100
0000
0010
0000
0000
0000
0100
0000
0000
0000
,
0100
0000
0000
0001
0000
0000
1000
0000
0010
0000
0000
0000
0101
0000
0000
0000
,
1000
0000
0000
0000
0010
0000
0000
1000
0001
0000
0000
0000
0100
0000
0000
0000
,
0001
0001
1000
0000
0100
0000
1001
0000
,
0010
0010
0000
0001
1000
0100
0100
0000
,
1000
1000
0000
0010
0100
0001
0001
0000
,
0001
0000
0000
0000
0010
0000
0000
0001
1000
0000
0000
0000
0100
0000
0000
0000
,
1000
1000
0001
0000
0100
0000
1001
0000
,
1000
0001
0000
0010
0100
0000
1000
0000
,
0011
0110
1001
0000
,
1000
0000
0000
0000
0010
0000
0000
0100
0001
0000
0000
0000
1000
0000
0000
0000
,
0001
1001
0100
1001
,
0010
1000
0000
0010
1000
0100
0100
0000
,
1000
0010
0000
0010
0100
0100
0001
0000
,
0001
0000
0000
0000
0010
0000
0000
0100
1000
0000
0000
0000
0001
0000
0000
0000
,
1000
1001
0100
1001
,
0010
0001
0000
0010
0100
0000
1000
0000
,
0011
0110
1001
1100
,
0001
0000
0010
0000
0000
0010
0000
0000
0100
0000
0000
0000
0000
0000
0000
0000
,
1000
0000
0010
0000
0000
0010
0000
0000
0100
0000
0000
0000
0000
0000
0000
0000
,
0001
0000
1000
0000
0000
0100
0000
0000
0100
0000
0000
0000
0000
0000
0000
0000
,
1000
0000
0001
0000
0000
0100
0000
0000
0100
0000
0000
0000
0000
0000
0000
0000
,
0010
0000
1000
0000
0000
0010
0000
0000
0100
0000
0000
0000
1001
0000
0000
0000
,
0010
0000
0001
0000
0000
0010
0000
0000
0100
0000
0000
0000
1001
0000
0000
0000
,
0001
0000
1000
0000
0000
0100
0000
0000
0010
0000
0000
0000
0011
0000
0000
0000
,
1000
1000
0001
1000
0100
0000
1100
0000
;
