#TITLE:Cabin Fever;
#SUBTITLE:;
#ARTIST:From Mario Party 5;
#TITLETRANSLIT:;
#SUBTITLETRANSLIT:;
#ARTISTTRANSLIT:;
#GENRE:;
#CREDIT:;
#BANNER:Cabin Fever.png;
#BACKGROUND:Cabin Fever-bg.png;
#LYRICSPATH:;
#CDTITLE:;
#MUSIC:Cabin Fever.ogg;
#OFFSET:0.016492;
#SAMPLESTART:18.730003;
#SAMPLELENGTH:15.000000;
#SELECTABLE:YES;
#DISPLAYBPM:128.000000;
#BPMS:0.000000=128.000000
;
#STOPS:
;
#BGCHANGES:-1.200=Cabin Fever.avi=1.000=1=0=1===CrossFade==,
221.000=Cabin Fever-bg.png=1.000=1=0=1===CrossFade==,
99999=-nosongbg-=1.000=0=0=0 // don't automatically add -songbackground-
;
#KEYSOUNDS:;
#ATTACKS:;

//---------------dance-single - ----------------
#NOTES:
     dance-single:
     :
     Challenge:
     8:
     0.332005,0.446967,0.212152,0.000000,0.067503,241.000000,219.000000,22.000000,0.000000,0.000000,0.000000,0.332005,0.446967,0.212152,0.000000,0.067503,241.000000,219.000000,22.000000,0.000000,0.000000,0.000000:
0000
0000
0000
0000
,
0000
0000
0000
0000
,
0000
0000
0000
0000
,
0000
0000
0000
0000
,
0000
0000
0000
0000
,
0000
0000
0000
0000
,
0000
0000
0000
0000
,
0000
0000
0000
0000
,
0000
0000
0000
0000
,
0001
0000
1000
0000
0000
0001
0000
0000
0100
0000
0000
0000
0000
0000
0000
0000
,
0010
1000
0001
0100
,
0001
0000
0001
1000
0000
0000
0001
0100
,
0010
0000
0010
0000
1000
0100
0000
0010
,
0000
0000
0001
0000
1000
0000
0000
0000
0100
0000
0000
1000
0000
0000
0001
0000
,
1000
0000
1000
0000
0010
0000
0100
0001
,
0010
0000
0000
0001
0000
0000
0100
0000
0000
0000
0000
0000
0010
0000
1000
0000
,
0001
0000
0101
0000
1000
0010
0000
0100
,
0001
1000
0010
1000
0001
0100
0001
0000
,
0010
0001
1000
0100
,
1000
0000
1000
0001
0000
0000
1000
0100
,
0010
0000
0010
0000
0001
0100
0000
0010
,
0000
0000
0000
0000
0000
0010
0000
1000
,
0001
0000
0001
0000
0010
0000
0100
1000
,
0010
1000
0010
0100
0000
0000
0010
1000
,
1000
0000
1100
0000
0001
0010
0000
0100
,
1000
0000
0000
0100
0000
0000
0001
0000
0100
0000
0000
0000
0000
0000
0000
0000
,
1000
0001
0000
0000
1000
0010
0000
0000
1000
0100
0000
0000
0000
0000
0000
0000
,
1000
0000
0001
0000
0001
0000
0100
0001
,
0010
0000
0001
0000
1000
0000
0010
0100
,
0001
0000
1000
0000
0100
0000
1000
0010
,
0100
0000
0001
0000
0100
0000
0010
1000
,
1001
0000
0010
0000
0001
0000
0100
0001
,
0101
0000
0001
0000
1000
0000
0010
0100
,
0110
0000
1000
0000
0100
0000
1000
0010
,
1010
0001
0100
0010
,
0100
0001
0010
0100
1000
0000
0000
0000
,
1001
0000
0010
1000
0001
0000
0100
0001
,
0101
0000
1000
0010
1000
0000
0010
0100
,
0110
0000
0001
1000
0100
0000
1000
0010
,
1010
0000
0101
0000
1000
0100
0010
0000
,
1001
0000
0010
1000
0001
0001
0100
0001
,
0101
0000
1000
0010
1000
1000
0010
0100
,
0110
0000
0001
1000
0100
0100
1000
0010
,
1000
0000
0001
0000
0000
1000
0000
0000
0100
0000
0000
0000
0000
0000
0000
0000
,
1000
0010
0100
1001
,
0010
1000
0001
0110
,
1010
0101
1010
0101
,
1001
0000
0000
0000
0000
0000
0000
0000
0001
0000
0000
0000
0001
0000
0000
1000
,
0000
0000
1000
0000
0100
0000
0000
0000
1000
0000
0000
1000
0001
0000
1000
0000
,
0010
0000
0010
0000
0100
0000
0000
0000
0001
0000
0000
0001
1000
0000
0001
0000
,
0100
0000
0100
0000
0001
0000
0000
1000
0000
0000
0000
1000
0010
0000
0100
0000
,
0010
0000
1000
0000
0000
0001
0000
0000
0110
0000
0000
0000
0000
0000
0000
0000
;

//---------------dance-single - ----------------
#NOTES:
     dance-single:
     :
     Beginner:
     1:
     0.152915,0.248315,0.115720,0.000000,0.000000,111.000000,99.000000,12.000000,0.000000,0.000000,0.000000,0.152915,0.248315,0.115720,0.000000,0.000000,111.000000,99.000000,12.000000,0.000000,0.000000,0.000000:
0000
0000
0000
0000
,
0000
0000
0000
0000
,
0000
0000
0000
0000
,
0000
0000
0000
0000
,
0000
0000
0000
0000
,
1010
1010
0000
0000
,
0000
0000
0000
0000
,
0000
0000
0000
0000
,
0000
0000
0000
0000
,
0000
0000
0000
0000
,
0001
0000
0001
0000
,
1000
1000
1000
0000
,
0001
0000
1000
0000
,
0001
1000
0001
0000
,
1000
0000
1000
0000
,
0001
0001
0001
0000
,
1000
0000
0001
0000
,
1001
0000
0000
0000
,
0001
0000
0001
0000
,
1000
1000
1000
0000
,
0001
0000
1000
0000
,
0001
1000
0001
0000
,
1000
0000
1000
0000
,
0001
0001
0001
0000
,
1000
0000
0001
0000
,
1001
0000
1001
0000
,
1000
1000
0001
0001
,
1001
0000
0000
0000
0000
0000
0000
1000
,
1000
0000
0000
0000
,
1001
0000
0000
0000
0000
0000
0000
0001
,
0001
0000
0000
0000
,
1000
0000
1000
0000
,
0001
0000
0001
0000
,
1000
0000
1000
0000
,
1001
0000
1001
0000
,
0001
0001
0001
0000
,
1000
1000
0001
0001
,
1000
1000
0001
0000
,
0001
0001
1000
1000
,
0001
0001
1000
0000
,
1000
0001
1000
0000
,
0001
1000
0001
0000
,
1000
0001
1000
0000
,
1000
1000
1000
0000
,
1001
0000
0000
0000
,
0001
0000
0000
0000
,
1000
0001
1000
0001
,
1000
0000
0000
0000
,
1001
0000
0000
0000
,
0001
0000
0000
0000
,
1000
0000
0000
0000
,
0001
1000
1001
0000
;

//---------------dance-single - ----------------
#NOTES:
     dance-single:
     :
     Easy:
     3:
     0.181845,0.248315,0.057860,0.000000,0.000000,132.000000,126.000000,6.000000,0.000000,0.000000,0.000000,0.181845,0.248315,0.057860,0.000000,0.000000,132.000000,126.000000,6.000000,0.000000,0.000000,0.000000:
0000
0000
0000
0000
,
0000
0000
0000
0000
,
0000
0000
0000
0000
,
0000
0000
0000
0000
,
0000
0000
0000
0000
,
0000
0000
0000
0000
,
0000
0000
0000
0000
,
0000
0000
0000
0000
,
0000
0000
0000
0000
,
0000
0000
0000
0000
,
1000
0000
0010
0010
,
0001
1000
1000
0000
,
0100
0000
0010
0001
,
0010
0000
0100
0000
,
0001
1000
0001
0000
,
0010
1000
0100
0000
,
0001
0100
0010
0000
,
0001
1000
1000
0001
,
0001
0000
0010
0010
,
1000
0001
0001
0000
,
0100
0000
0010
1000
,
1000
0000
0001
0000
,
1000
0001
1000
0000
,
0001
1000
0100
0000
,
1000
0100
0010
0000
,
0001
0001
1001
0000
,
0010
0010
0110
0000
,
1000
0000
0000
0000
1000
0000
0000
0001
,
0001
0000
0000
0000
0010
0000
0000
1000
,
0001
0000
0000
0000
0100
0000
0000
0010
,
0010
0000
1000
0001
,
1000
0000
0000
0000
0010
0000
0000
0001
,
0001
0000
0000
0000
0100
0000
0000
1000
,
0001
0000
0000
0000
1000
0000
0000
0010
,
0010
0000
0100
0001
,
1000
1000
0100
0000
,
0010
0000
0000
0000
0010
0000
0000
0001
,
1000
0000
0000
0000
0100
0000
0000
1000
,
0001
0000
0000
0000
1000
0000
0000
0100
,
0010
0000
0100
0010
,
0010
0000
0000
0000
0110
0000
0000
0001
,
1000
0000
0000
0000
0110
0000
0000
1000
,
0001
0000
0000
0001
1000
0000
0000
0000
,
0100
0100
1001
0000
,
0010
0000
0010
1000
,
1000
0000
0001
0010
,
0100
0100
1000
1000
,
0010
0010
0001
0000
,
0000
0001
1000
1000
,
0000
0010
0001
0100
,
0000
1000
0010
0010
,
0100
0010
1001
0000
;

//---------------dance-single - ----------------
#NOTES:
     dance-single:
     :
     Medium:
     5:
     0.232817,0.248315,0.077146,0.000000,0.019287,169.000000,161.000000,8.000000,0.000000,0.000000,0.000000,0.232817,0.248315,0.077146,0.000000,0.019287,169.000000,161.000000,8.000000,0.000000,0.000000,0.000000:
0000
0000
0000
0000
,
0000
0000
0000
0000
,
0000
0000
0000
0000
,
0000
0000
0000
0000
,
0000
0000
0000
0000
,
0000
0000
0000
0000
,
0000
0000
0000
0000
,
0000
0000
0000
0000
,
0000
0000
0000
0000
,
1000
0000
1000
0000
0000
1000
0000
0000
1000
0000
0000
0000
0000
0000
0000
0000
,
0001
0001
1000
1000
,
0010
0000
0010
0010
0000
0000
0000
0000
,
0001
1000
0100
1000
,
1000
0001
0100
0000
,
0010
0010
1000
0001
,
0001
0010
0001
1000
,
0100
1000
0001
0001
,
1000
0000
0001
1001
,
1000
1000
0001
0001
,
0010
0000
0010
0010
0000
0000
0000
0000
,
1000
0001
0100
0001
,
1000
0010
0100
0000
,
0010
0010
0001
1000
,
0001
0010
0001
0100
,
0100
0001
1000
1000
,
0010
0000
0000
0010
0000
0000
0010
0000
0010
0000
0000
0000
0000
0000
0000
0000
,
0010
0100
0110
0000
,
0001
0000
1000
0000
0100
0000
0000
1000
,
0100
0000
1000
0000
0001
0000
0000
1000
,
0001
0000
0100
0000
0001
0000
0000
0100
,
0001
1000
0010
0010
,
1001
0000
1000
0000
0100
0000
0000
0010
,
0100
0000
1000
0000
0001
0000
0000
0010
,
0001
0000
0100
0000
0001
0000
0000
1000
,
0001
1000
0010
1000
,
0001
0001
1001
1000
,
0001
0010
0100
1000
,
0100
1000
0001
1000
,
0001
0100
0001
0100
,
0001
0100
0010
1000
,
0001
0010
0100
0010
,
0100
1000
0010
1000
,
0001
0100
1000
0100
,
0001
0000
0001
0000
0000
0001
0000
0000
0001
0000
0000
0000
0000
0000
0000
0000
,
1000
1000
0000
0110
,
0010
0010
0000
1001
,
1000
0001
1000
0001
,
0110
0000
0000
0000
0000
0000
0000
1001
,
0000
1000
0010
0100
,
0001
0100
0100
0010
,
1000
0001
0100
0010
,
1000
0000
1000
0000
0000
0001
0000
0000
0001
0000
0000
0000
0000
0000
0000
0000
;

//---------------dance-single - ----------------
#NOTES:
     dance-single:
     :
     Hard:
     6:
     0.276900,0.347641,0.202509,0.000000,0.019287,201.000000,180.000000,21.000000,0.000000,0.000000,0.000000,0.276900,0.347641,0.202509,0.000000,0.019287,201.000000,180.000000,21.000000,0.000000,0.000000,0.000000:
0000
0000
0000
0000
,
0000
0000
0000
0000
,
0000
0000
0000
0000
,
0000
0000
0000
0000
,
0000
0000
0000
0000
,
0000
0000
0000
0000
,
0000
0000
0000
0000
,
0000
0000
0000
0000
,
0000
0000
0000
0000
,
1000
0000
1000
0000
0000
1000
0000
0000
0001
0000
0000
0000
0000
0000
0000
0000
,
0010
1000
0001
0010
,
0001
0000
1000
0000
0100
0000
0010
1000
,
0010
0100
1000
0001
,
0010
1001
0100
1001
,
0001
0100
1000
0100
,
0010
0000
0001
0000
1000
0000
0001
0010
,
0001
0100
0001
1000
,
0100
0010
0100
1001
,
0100
0001
1000
0100
,
1000
0000
0001
0000
0010
0000
0100
0001
,
0100
0010
0001
0010
,
1000
1100
0001
0101
,
1000
0010
0001
0010
,
0100
0000
1000
0000
0001
0000
1000
0100
,
1000
0010
1000
0001
,
0010
0000
0000
0100
0000
0000
0010
0000
0110
0000
0000
0000
0000
0000
0000
0000
,
1001
0110
1001
0000
,
0001
0000
0100
0000
0010
0000
1000
0100
,
1000
0000
0010
0000
0100
0000
0001
0100
,
0001
0000
1000
0000
0100
0000
0010
0001
,
0010
0001
0100
1001
,
0000
0001
0000
1000
0000
0010
0000
1000
,
0000
0100
0000
0001
0000
1000
0000
0010
,
0000
0001
0000
0100
0000
1000
0000
0010
,
0010
1000
0001
0100
,
1000
1100
0001
0101
,
1000
0000
0100
0000
0010
0000
0001
0100
,
0001
0000
0010
0000
0100
0000
1000
0100
,
1000
0000
0001
0000
0100
0000
0010
1000
,
0010
1000
0100
1001
,
0010
0000
1000
0000
0010
0000
0001
0100
,
1000
0000
0010
0000
0100
0000
1000
0100
,
0001
1000
0100
0010
,
0001
0000
0001
0000
0000
0001
0000
0000
1000
0000
0000
0000
0000
0000
0000
0000
,
1001
0010
0001
0100
,
1000
0010
0001
0100
,
1001
0110
1001
0110
,
1001
0000
0000
0000
0000
0000
0000
1001
,
0000
0010
1000
0001
,
0010
0100
1000
0010
,
0001
1000
0010
0100
,
0001
0000
1000
0000
0000
0001
0000
0000
1001
0000
0000
0000
0000
0000
0000
0000
;
