#TITLE:Boo Boogie;
#SUBTITLE:;
#ARTIST:From Super Mario Bros 2;
#TITLETRANSLIT:;
#SUBTITLETRANSLIT:;
#ARTISTTRANSLIT:;
#GENRE:;
#CREDIT:;
#BANNER:Boo Boogie.png;
#BACKGROUND:Boo Boogie-bg.png;
#LYRICSPATH:;
#CDTITLE:;
#MUSIC:Boo Boogie.ogg;
#OFFSET:1.853600;
#SAMPLESTART:14.849998;
#SAMPLELENGTH:15.000000;
#LASTBEATHINT:1.821470;
#SELECTABLE:YES;
#DISPLAYBPM:129.000000;
#BPMS:0.000000=129.000000
;
#STOPS:
;
#BGCHANGES:3.750=Boo Boogie.avi=1.000=1=0=1===CrossFade==,
192.000=Boo Boogie-bg.png=1.000=1=0=1===CrossFade==,
99999=-nosongbg-=1.000=0=0=0 // don't automatically add -songbackground-
;
#KEYSOUNDS:;
#ATTACKS:;

//---------------dance-single - ----------------
#NOTES:
     dance-single:
     :
     Beginner:
     1:
     0.164458,0.260183,0.023257,0.000000,0.000000,99.000000,97.000000,2.000000,0.000000,0.000000,0.000000,0.164458,0.260183,0.023257,0.000000,0.000000,99.000000,97.000000,2.000000,0.000000,0.000000,0.000000:
0000
0000
0000
0000
,
0000
0000
0000
0000
,
0000
0000
0000
0000
,
0000
0000
0000
0000
,
0000
0000
0000
0000
,
0001
0000
0000
0000
,
1000
0000
0000
0000
,
1000
0000
0000
0000
,
0001
0000
0000
0000
,
1000
1000
0000
0000
,
0001
1000
0000
0000
,
0001
0001
0000
0000
,
1000
0001
0000
0000
,
1000
1000
0001
0001
,
1000
1000
0001
0001
,
1000
1000
0001
0001
,
1000
0001
1000
0000
,
1001
0000
0000
0000
,
0001
0000
0000
0000
,
1000
0000
0000
0000
,
0001
0000
1000
0000
,
0001
0001
0001
0000
,
1000
1000
1000
0000
,
0001
1000
0001
1000
,
0001
0000
0000
0000
,
1000
1000
1000
0000
,
0001
0001
0001
0000
,
1000
0001
1000
0001
,
1000
0000
0000
0000
,
0001
0000
0001
0000
,
1000
0000
1000
0000
,
0001
0000
1000
0000
,
0001
0001
1000
1000
,
0001
0001
0000
0000
,
1000
0001
0000
0000
,
1000
1000
0000
0000
,
0001
1000
0000
0000
,
0001
0000
1000
0000
,
1000
0000
0001
0000
,
0001
0000
1000
0000
,
0001
1000
0001
0000
,
1000
1000
0001
0001
,
1000
1000
0001
0001
,
1000
1000
0001
0001
,
1000
0001
1000
1001
;

//---------------dance-single - ----------------
#NOTES:
     dance-single:
     :
     Easy:
     1:
     0.157813,0.208147,0.058142,0.000000,0.000000,95.000000,90.000000,5.000000,0.000000,0.000000,0.000000,0.157813,0.208147,0.058142,0.000000,0.000000,95.000000,90.000000,5.000000,0.000000,0.000000,0.000000:
0000
0000
0000
0000
,
0000
0000
0000
0000
,
0000
0000
0000
0000
,
0000
0000
0000
0000
,
0000
0000
0000
0000
,
1000
0000
0000
0000
,
0010
0000
0000
0000
,
0100
0000
0000
0000
,
0110
0000
1001
0000
,
1000
1000
0000
0000
,
0010
0010
0000
0000
,
1000
0100
0000
0000
,
0010
0010
0000
0000
,
0001
0000
0001
0000
,
0100
0000
0001
0000
,
1000
0000
1000
0000
,
0010
0010
0000
0001
,
0001
0000
0000
0000
,
0010
0000
0000
0000
,
0100
0000
0000
0000
,
0110
0000
1001
0000
,
0001
0000
1000
1000
,
0010
0000
0001
0001
,
0001
0000
1000
0010
,
1000
0000
1000
0100
,
1000
0000
0001
0001
,
0010
0000
1000
1000
,
0100
0000
0010
0010
,
0010
0000
0001
0001
,
0001
0000
0001
0010
,
0001
0001
0001
0000
,
1000
1000
0010
0000
,
0001
0001
0100
0000
,
0001
0001
0000
0000
,
0010
0010
0000
0000
,
0001
0100
0000
0000
,
0010
0010
0000
0000
,
1000
0000
1000
0000
,
0100
0000
1000
0000
,
0001
0000
0001
0000
,
1000
1000
0000
0001
,
0001
0000
0001
0000
,
0100
0000
0001
0000
,
1000
0000
1000
0000
,
0001
0010
0001
1001
;

//---------------dance-single - ----------------
#NOTES:
     dance-single:
     :
     Medium:
     2:
     0.197681,0.234165,0.058142,0.000000,0.000000,119.000000,114.000000,5.000000,0.000000,0.000000,0.000000,0.197681,0.234165,0.058142,0.000000,0.000000,119.000000,114.000000,5.000000,0.000000,0.000000,0.000000:
0000
0000
0000
0000
,
0000
0000
0000
0000
,
0000
0000
0000
0000
,
0000
0000
0000
0000
,
0000
0000
0000
0000
,
0001
0000
0000
0010
,
0001
0000
0000
0100
,
1000
0000
0000
1000
,
0001
0000
0010
0010
,
1000
0100
1000
0000
,
0010
0001
0001
0000
,
0010
0100
1000
0000
,
0010
1000
1000
0000
,
0100
0000
0001
0001
,
0100
0000
0001
1000
,
0100
0000
1000
1000
,
0010
0000
0001
0110
,
1000
0000
0000
0010
,
1000
0000
0000
0100
,
0001
0000
0000
0001
,
1000
0000
0010
0010
,
0100
0000
0010
0001
,
0001
1000
0100
0000
,
1000
0000
0001
0100
,
0010
0010
1000
0000
,
0100
0000
0010
1000
,
1000
0001
0100
0000
,
0010
0000
0001
0100
,
0010
0000
1000
1001
,
0001
0000
0100
0000
,
1000
0001
0001
0010
,
0001
0000
1000
0000
,
1001
0010
0010
0000
,
0001
0100
0001
0000
,
0010
1000
1000
0000
,
0010
0100
0001
0000
,
0010
0001
0001
0000
,
0100
0000
1000
1000
,
0100
0000
1000
0001
,
0100
0000
0001
0001
,
0010
0000
0010
0110
,
0100
0000
0001
0001
,
0100
0000
0001
1000
,
0100
0000
1000
1000
,
0010
1000
0001
0110
;

//---------------dance-single - ----------------
#NOTES:
     dance-single:
     :
     Hard:
     4:
     0.267451,0.286202,0.069770,0.000000,0.000000,161.000000,155.000000,6.000000,0.000000,0.000000,0.000000,0.267451,0.286202,0.069770,0.000000,0.000000,161.000000,155.000000,6.000000,0.000000,0.000000,0.000000:
0000
0000
0000
0000
,
0000
0000
0000
0000
,
0000
0000
0000
0000
,
0000
0000
0000
0000
,
0000
0000
0000
0000
,
0010
0100
0001
0001
,
1000
0010
0010
0100
,
0010
1000
0001
0001
,
1000
1000
0001
0010
,
0001
0000
1000
0000
0000
0010
0010
0000
,
1000
0001
0001
0100
,
0010
0000
1000
0000
0000
0010
0010
0000
,
0001
1000
1000
0100
,
1000
0100
0100
0001
,
1000
0100
0010
0001
,
0001
0100
0100
1000
,
0001
1000
1000
1001
,
0010
0100
1000
1000
,
0001
0010
0010
0100
,
0010
0001
1000
1000
,
0001
0001
1000
0010
,
1000
0000
1000
0010
,
0100
0100
0001
0000
,
0001
1000
0010
0100
,
0110
0001
0001
1000
,
0001
0000
0001
0010
,
0100
0100
1000
0000
,
0100
0001
0010
0100
,
1000
0100
0100
0000
,
1000
0001
0100
0010
,
1000
1000
0100
0001
,
0100
1000
0001
0100
,
0001
0010
0110
1000
,
1000
0000
0001
0000
0000
0010
0010
0000
,
0001
1000
1000
0100
,
0010
0000
0001
0000
0000
0010
0010
0000
,
1000
0001
0001
0100
,
0001
0100
0100
1000
,
0001
0100
0010
1000
,
1000
0100
0100
0001
,
0010
1000
0010
1001
,
1000
0100
0100
0001
,
1000
0100
0010
0001
,
0001
0100
0100
1000
,
0001
1000
1001
1001
;

//---------------dance-single - ----------------
#NOTES:
     dance-single:
     :
     Challenge:
     8:
     0.373767,0.390275,0.209310,0.000000,0.220938,225.000000,207.000000,18.000000,0.000000,0.000000,0.000000,0.373767,0.390275,0.209310,0.000000,0.220938,225.000000,207.000000,18.000000,0.000000,0.000000,0.000000:
0000
0000
0000
0000
,
0000
0000
0000
0000
,
0000
0000
0000
0000
,
0000
0000
0000
0000
,
0000
0000
0000
0000
,
0001
0100
0010
0010
,
1000
0000
0000
0000
0100
0000
1000
0001
0000
0001
0000
0001
0000
0000
0000
0000
,
1000
0001
0010
0010
,
0001
0000
1000
0000
0100
1000
0001
0010
,
0001
0000
0000
0000
0100
0000
0000
1001
0000
0000
0010
0000
0100
0000
0000
0000
,
1000
0000
0000
0000
1000
0000
0000
0001
0000
0000
0001
0000
1001
0000
0000
0000
,
0010
0000
0000
0000
1000
0000
0000
1001
0000
0000
0010
0000
0100
0000
0000
0000
,
0001
0000
0000
0000
0001
0000
0000
1000
0000
0000
1000
0000
1001
0000
0000
0000
,
0100
0000
1000
0000
0001
0010
0001
0000
,
0100
0000
1000
0000
0100
0001
0100
0000
,
0100
0000
0001
0000
1000
0010
1000
0000
,
0001
0000
0010
0000
0100
0000
0000
0110
0000
0000
1000
0000
0001
0000
0000
0000
,
1000
0100
0010
0010
,
0001
0000
0000
0000
0100
0000
0001
1000
0000
1000
0000
1000
0000
0000
0000
0000
,
0001
1000
0010
0010
,
1000
0000
0001
0000
0100
0001
1000
0010
,
0100
0000
0000
0000
0001
0000
0000
1000
0000
0010
0100
0000
0000
0000
0000
0000
,
0001
0000
0001
0000
0001
0000
0000
0100
0000
0001
1000
0000
0000
0000
0000
1000
,
0010
0000
1000
0000
0100
0000
0000
1000
0000
0001
0100
0000
0000
0000
0000
0000
,
0001
0000
1000
0000
0001
0000
0000
0001
0000
1000
0100
0000
1000
0000
1000
0000
,
0100
0000
0000
0000
1000
0000
0000
0001
0000
0010
0100
0000
0000
0000
0000
0000
,
1000
0000
1000
0000
1000
0000
0000
0100
0000
1000
0001
0000
0000
0000
0000
0001
,
0010
0000
0001
0000
1000
0000
0000
0001
0000
1000
0100
0000
0000
0000
0000
0000
,
0010
0000
0001
0000
0010
0000
0000
0100
0000
1000
0001
0000
0100
0000
0100
0000
,
0001
0000
0000
0000
0000
0000
0000
0000
0000
0000
1001
0000
,
1100
0000
0000
0000
0000
0000
0000
0000
0000
0000
0110
0000
,
0011
0000
0000
0000
0000
0000
0000
0000
0000
0000
1010
0000
,
0101
0000
0010
0000
0001
1000
0001
0001
,
1000
0000
0000
0000
0100
0000
0000
1001
0000
0000
0010
0000
0100
0000
0000
0000
,
1000
0000
0000
0000
1000
0000
0000
0001
0000
0000
0001
0000
1001
0000
0000
0000
,
0010
0000
0000
0000
0001
0000
0000
1001
0000
0000
0010
0000
0100
0000
0000
0000
,
0001
0000
0000
0000
0001
0000
0000
1000
0000
0000
1000
0000
1001
0000
0000
0000
,
0100
0000
1000
0000
0001
0010
0001
0000
,
0100
0000
0001
0000
0100
1000
0100
0000
,
0100
0000
0001
0000
1000
0010
1000
0000
,
0001
0000
0010
0000
0100
0000
0000
1100
0000
0000
0010
0000
1000
0000
0000
0000
,
0100
0000
1000
0000
0001
0010
0001
0000
,
0100
0000
1000
0000
0100
0001
0100
0000
,
0100
0000
0001
0000
1000
0010
1000
0000
,
0001
0000
0010
0000
0100
0000
0000
0110
0000
0000
0010
0000
1001
0000
0000
0000
;
