#TITLE:Blooper Bop;
#SUBTITLE:;
#ARTIST:From Super Mario Bros;
#TITLETRANSLIT:;
#SUBTITLETRANSLIT:;
#ARTISTTRANSLIT:;
#GENRE:;
#CREDIT:;
#BANNER:Blooper Bop.png;
#BACKGROUND:Blooper Bop-bg.png;
#LYRICSPATH:;
#CDTITLE:;
#MUSIC:Blooper Bop.ogg;
#OFFSET:2.110380;
#SAMPLESTART:6.250000;
#SAMPLELENGTH:15.000000;
#LASTBEATHINT:2.097552;
#SELECTABLE:YES;
#DISPLAYBPM:114.000000;
#BPMS:0.000000=114.000000
;
#STOPS:
;
#BGCHANGES:3.750=Blooper Bop.avi=1.000=1=0=1===CrossFade==,
188.000=Blooper Bop-bg.png=1.000=1=0=1===CrossFade==,
99999=-nosongbg-=1.000=0=0=0 // don't automatically add -songbackground-
;
#KEYSOUNDS:;
#ATTACKS:;

//---------------dance-single - ----------------
#NOTES:
     dance-single:
     :
     Beginner:
     1:
     0.109970,0.117314,0.000000,0.000000,0.000000,73.000000,73.000000,0.000000,0.000000,0.000000,0.000000,0.109970,0.117314,0.000000,0.000000,0.000000,73.000000,73.000000,0.000000,0.000000,0.000000,0.000000:
0000
0000
0000
0000
,
0000
0000
0000
0000
,
0000
0000
0000
0000
,
0000
0000
0000
0000
,
1000
0000
0000
1000
0000
0000
1000
0000
,
0000
0000
0000
0000
0001
0000
0000
0001
,
0000
0001
0000
0000
,
1000
0000
0000
1000
0000
0000
1000
0000
,
0000
0000
0000
0000
0001
0000
0000
0001
,
0000
0001
0000
0000
,
1000
0000
0000
1000
0000
0000
0001
0000
,
0000
0000
0000
0000
0001
0000
0000
0001
,
0000
1000
0000
0000
,
1000
0000
0000
1000
0000
0000
0001
0000
,
0000
0000
0000
0000
0001
0000
0000
0001
,
0000
1000
0000
0000
,
1000
0000
0000
0001
0000
0000
1000
0000
,
0000
0000
0000
0000
0001
0000
0000
1000
,
0000
0001
0000
0000
,
1000
0000
0000
0001
,
0000
0000
0000
0000
1000
0000
0000
0001
,
0000
1000
0000
0000
,
0001
0000
0000
1000
,
0000
0000
0001
0000
,
0000
0001
0000
0000
,
1000
0000
0000
1000
,
0000
0000
0001
0000
,
0000
1000
0000
0000
,
1000
0000
0000
0001
,
0000
0001
0000
0000
0001
0000
0000
0000
,
0000
0000
1000
0000
0000
1000
0000
0000
,
1000
0000
0000
0001
,
0000
1000
0000
0000
0001
0000
0000
0000
,
0000
0000
1000
0000
0000
0001
0000
0000
,
1000
0000
0000
1000
,
0000
1000
0000
0000
1000
0000
0000
0000
,
0000
0000
0001
0000
0000
0001
0000
0000
,
0001
0000
0000
1000
,
0000
0000
0001
0000
,
0000
1000
0000
0000
,
1000
0000
0000
0001
,
0000
0000
0001
0000
,
0000
1000
0000
0000
,
1000
0000
0000
0001
,
0000
0001
0000
0000
0001
0000
0000
0000
;

//---------------dance-single - ----------------
#NOTES:
     dance-single:
     :
     Easy:
     1:
     0.090386,0.117314,0.042180,0.000000,0.000000,60.000000,56.000000,4.000000,0.000000,0.000000,0.000000,0.090386,0.117314,0.042180,0.000000,0.000000,60.000000,56.000000,4.000000,0.000000,0.000000,0.000000:
0000
0000
0000
0000
,
0000
0000
0000
0000
,
0000
0000
0000
0000
,
0000
0000
0000
0000
,
0010
0000
0000
1000
,
0000
0000
1000
0000
,
0000
0001
0000
0000
,
0010
0000
0000
0001
,
0000
0000
0100
0000
,
0000
1000
0000
0000
,
0010
0000
0000
0001
,
0000
0000
0001
0000
,
0000
1000
0000
0000
,
0010
0000
0000
0001
,
0000
0000
0100
0000
,
0000
1000
0000
0000
,
0001
0000
0000
1001
,
0000
0000
1000
0000
,
0000
1001
0000
0000
,
0010
0000
0000
0001
,
0000
0000
0000
0000
1000
0000
0000
1000
,
0000
1000
0000
0000
,
0001
0000
0000
1000
,
0000
0000
1000
0000
,
0000
0001
0000
0000
,
0010
0000
0000
1000
,
0000
0000
0100
0000
,
0000
0001
0000
0000
,
0001
0000
0000
0010
,
0000
0000
1000
0000
,
0000
0001
0000
0000
,
0010
0000
0000
0001
,
0000
0000
0100
0000
,
0000
0100
0000
0000
,
0001
0000
0000
1000
,
0000
0000
1001
0000
,
0000
0001
0000
0000
,
1001
0000
0000
0010
,
0000
0000
0001
0000
,
0000
1000
0000
0000
,
0010
0000
0000
0001
,
0000
0000
0010
0000
,
0000
1000
0000
0000
,
0010
0000
0000
1000
,
0000
0000
1000
0000
;

//---------------dance-single - ----------------
#NOTES:
     dance-single:
     :
     Medium:
     3:
     0.189811,0.237923,0.063270,0.000000,0.021090,126.000000,120.000000,6.000000,0.000000,0.000000,0.000000,0.189811,0.237923,0.063270,0.000000,0.021090,126.000000,120.000000,6.000000,0.000000,0.000000,0.000000:
0000
0000
0000
0000
,
0000
0000
0000
0000
,
0000
0000
0000
0000
,
0000
0000
0000
0000
,
0001
0000
0000
0010
0000
0000
0010
0000
,
0000
0100
0000
0000
1000
0000
0000
1000
,
0000
0000
0001
0000
0000
0010
0000
0000
,
0010
0000
0000
0001
0000
0000
0001
0000
,
0000
1000
0000
0000
0001
0000
0000
0100
,
0000
0000
0100
0000
0000
1000
0000
0000
,
1000
0000
0000
0010
0000
0000
0010
0000
,
0000
0100
0000
0000
1000
0000
0000
1000
,
0000
0000
0010
0000
0000
0010
0000
0000
,
0010
0000
0000
0001
0000
0000
1000
0000
,
0000
1000
0000
0000
0001
0000
0000
0001
,
0000
0000
0100
0000
0000
1000
0000
0000
,
1001
0000
0000
0001
0000
0000
0010
0000
,
0000
0001
0000
0000
1001
0000
0000
0001
,
0000
0000
1000
0000
0000
0001
0000
0000
,
1000
0000
0000
1000
0000
0000
0100
0000
,
0000
0010
0010
0000
0010
0000
0000
0100
,
0000
0000
0000
0000
0001
0000
0000
0001
0000
0000
0001
0000
0000
0001
0000
0000
,
1000
0000
0000
1000
0000
0000
1000
0000
0000
1000
0000
0000
1000
0000
0000
0000
,
0000
0010
0000
0000
0100
0000
0000
0001
,
0000
0000
0010
0000
0000
0100
0000
0000
,
1000
0000
0000
1000
0000
0000
0010
0000
,
0000
1000
0000
0000
0100
0000
0000
0100
,
0000
0000
0001
0000
0000
1000
0000
0000
,
0001
0000
0001
0000
0001
0001
0001
0000
,
0000
1000
0000
0000
0010
0000
0000
0100
,
0000
0000
0001
0000
0000
1000
0000
0000
,
1001
0000
0000
0110
0000
0000
0010
0000
,
0000
0001
0000
0000
0001
0000
0000
0001
,
0000
0000
0010
0000
0000
0100
0000
0000
,
0100
0000
0000
1000
0000
0000
1001
0000
,
0000
1000
0000
0000
0010
0000
0000
1000
,
0000
0000
1001
0000
0000
1000
0000
0000
,
0001
0000
0000
1000
0000
0000
0010
0000
,
0000
0001
0000
0000
0100
0000
0000
0010
,
0010
0000
0010
0000
0000
0100
0000
0000
,
0001
0000
0000
1000
0000
0000
0010
0000
,
0000
1000
0000
0000
0001
0000
0000
1000
,
0000
0000
0010
0000
0000
0100
0000
0000
,
0010
0000
0000
1000
0000
0000
0001
0000
,
0000
1000
0000
0000
0001
0000
1000
0000
,
0001
0001
0000
0000
0000
0000
0000
0000
;

//---------------dance-single - ----------------
#NOTES:
     dance-single:
     :
     Hard:
     5:
     0.224459,0.285508,0.158176,0.000000,0.021090,149.000000,134.000000,15.000000,0.000000,0.000000,0.000000,0.224459,0.285508,0.158176,0.000000,0.021090,149.000000,134.000000,15.000000,0.000000,0.000000,0.000000:
0000
0000
0000
0000
,
0000
0000
0000
0000
,
0000
0000
0000
0000
,
0000
0000
0000
0000
,
1000
0000
0000
0010
0000
0000
1000
0000
,
0000
0010
0000
0000
0100
0000
0000
0001
,
0000
0000
1000
0000
0000
0001
0000
0001
,
0001
0000
0000
0100
0000
0000
0010
0000
,
0000
0010
0000
0000
1000
0000
0000
0001
,
0000
1000
1000
0000
0000
0010
0000
0010
,
0010
0000
0000
0010
0000
0000
1000
0000
,
0000
0010
0000
0000
0100
0000
0000
0010
,
0000
0000
1000
0000
0000
0001
0000
0001
,
0001
0000
0000
0100
0000
0000
0010
0000
,
0000
1000
0000
0000
1000
0000
0000
0001
,
0000
0000
1000
0000
0000
0010
0000
0000
,
0100
0000
0000
0010
0000
0000
1001
0000
,
0000
0101
0000
0000
0100
0000
0000
0100
,
0000
0000
1001
0000
0000
1100
0000
0000
,
1001
0000
0000
0100
0000
0000
0100
0000
,
0010
0010
0010
0000
1001
0000
0000
0110
,
0000
0000
0000
0000
0010
0000
0000
0010
0000
0000
1000
0000
0000
1000
0000
0000
,
0001
0000
0000
0001
0000
0000
0100
0000
0000
0100
0000
0000
0001
0000
0000
0000
,
0000
0001
0000
0000
0010
0000
0000
0001
,
0000
0000
1000
0000
0000
0010
0000
0000
,
1000
0000
0000
0100
0000
0000
0010
0000
,
0000
0001
0000
0000
1000
0000
0000
0100
,
0000
0000
0010
0000
0000
0110
0000
0000
,
1000
0000
0001
0000
1000
0001
1000
0000
,
0000
0010
0000
0000
1000
0000
0000
0001
,
0000
0000
0100
0000
0000
0001
0000
0000
,
1001
0000
0000
1000
1000
1000
0001
0000
,
0000
0100
0000
0000
0010
0000
0000
0010
,
0000
1000
1000
0000
0000
0001
0000
0000
,
1000
0000
0000
0100
,
0000
0010
0000
0000
1001
0000
0000
1100
,
0000
0000
0100
0000
0000
0100
0000
0000
,
1001
0000
0000
0101
0000
0000
1001
0000
,
0000
0010
0000
0000
0100
0000
0010
0010
,
0010
0000
1000
0000
0000
0001
0000
0100
,
0100
0000
0000
0001
0000
1000
1000
0000
,
0000
0010
0000
0100
0100
0000
0000
0001
,
0000
0001
0001
0000
0000
0001
0000
0100
,
0100
0000
0000
0001
0000
0010
0010
0000
,
0000
0110
0000
0000
1000
0000
0010
0000
,
0100
0001
0000
0000
0000
0000
0000
0000
;

//---------------dance-single - ----------------
#NOTES:
     dance-single:
     :
     Challenge:
     7:
     0.305807,0.356885,0.137086,0.000000,0.089633,203.000000,190.000000,13.000000,0.000000,0.000000,0.000000,0.305807,0.356885,0.137086,0.000000,0.089633,203.000000,190.000000,13.000000,0.000000,0.000000,0.000000:
0000
0000
0000
0000
,
0000
0000
0000
0000
,
0000
0000
0000
0000
,
0000
0000
0000
0000
,
1000
0000
0000
0001
0000
0000
0100
0000
0000
0000
0000
0000
0001
0000
0000
1000
,
0000
0000
0100
0000
0000
0000
0010
0000
0010
0000
0000
0001
0000
0000
0100
0000
,
0000
0000
0000
0000
0010
0000
0000
1000
0000
0000
0100
0000
0000
0000
1000
0000
,
1000
0000
0000
0100
0000
0000
0010
0000
0000
0000
0000
0000
0001
0000
0000
0100
,
0000
0000
0010
0000
0000
0000
0100
0000
0100
0000
0000
0001
0000
0000
0010
0000
,
0000
0000
0001
1000
0000
1000
0000
1000
,
1000
0000
0000
0100
0000
0000
0001
0000
,
0000
0100
0000
0010
0010
0000
0000
0100
,
0000
0000
1000
0000
0000
0100
0000
1000
,
1000
0000
0000
0010
0000
0000
0001
0000
,
0000
0010
0000
0100
0100
0000
0000
0010
,
0000
0000
1000
1000
1000
1000
0000
0000
,
0001
0000
0000
0100
0000
0000
1010
0000
,
0000
0000
0010
0000
1000
0000
0000
0001
0100
0000
0000
0000
0000
0000
0100
0000
,
0000
0000
0000
0000
1001
0000
0000
0000
0000
0000
0010
0000
0100
0000
0000
0001
,
1000
0000
0000
0100
0010
0001
0100
0010
,
0100
0001
1000
0000
1100
0000
0000
0011
,
0000
0000
0000
0000
1000
0000
0000
0010
0000
0000
0100
0000
0000
0001
0000
0000
,
0100
0000
0000
0001
0000
0000
1000
0000
0000
0010
0000
0000
1000
0000
0000
0000
,
0000
0001
1000
0100
0010
0000
0000
0100
,
1000
0001
0100
0000
0000
0010
0100
0001
,
0010
0000
0000
0001
0010
0100
1000
1000
,
0001
0100
0000
0100
0010
0010
1000
0001
,
0000
1000
0010
0000
0000
1010
0000
0000
,
1001
0000
0101
0000
1000
0010
1000
0000
,
0000
0100
0000
0000
0010
0000
0000
0001
,
0000
0000
1000
0000
0000
0001
0000
0000
,
0100
0100
0100
0001
1000
0001
0010
0000
,
0000
0000
0010
0000
0000
0000
0000
0000
0001
0000
0000
0100
0000
0000
0010
0000
,
0000
0000
0100
0000
0100
0000
0000
0010
0000
0000
1000
0000
0000
0000
0000
0000
,
0001
1000
1000
1000
0010
1000
1000
0000
,
0000
0100
0000
0000
0011
0000
0000
0010
,
0001
0000
0000
1000
0100
0000
0000
0000
0000
0000
0100
0000
0000
0000
0000
0000
,
1001
0000
0000
0000
0000
0000
0010
0000
0100
0000
0000
1000
0100
0000
0000
0000
,
0000
0100
0010
0001
0100
1000
0100
0001
,
1000
0000
0010
0000
0000
0100
0000
0000
,
0001
0010
0001
1000
0001
0100
0001
0000
,
0000
0100
0000
0000
0001
1000
0001
0100
,
0001
0010
0100
0000
0000
1000
0000
0000
,
0010
1000
0001
0100
0001
1000
0010
0000
,
0000
1010
0000
0000
1001
0000
0101
0000
,
1100
0001
0000
0000
0000
0000
0000
0000
;
