#TITLE:Always Smiling;
#SUBTITLE:;
#ARTIST:From Tritsch-Tratsch-Polka;
#TITLETRANSLIT:;
#SUBTITLETRANSLIT:;
#ARTISTTRANSLIT:;
#GENRE:;
#CREDIT:;
#BANNER:Always Smiling.png;
#BACKGROUND:Always Smiling-bg.png;
#LYRICSPATH:Always Smiling.lrc;
#CDTITLE:;
#MUSIC:Always Smiling.ogg;
#OFFSET:1.596220;
#SAMPLESTART:24.100004;
#SAMPLELENGTH:15.000000;
#LASTBEATHINT:1.376236;
#SELECTABLE:YES;
#DISPLAYBPM:140.000000;
#BPMS:0.000000=140.000000
;
#STOPS:
;
#BGCHANGES:3.750=Always Smiling.avi=1.000=1=0=1===CrossFade==,
216.000=Always Smiling-bg.png=1.000=1=0=1===CrossFade==,
99999=-nosongbg-=1.000=0=0=0 // don't automatically add -songbackground-
;
#KEYSOUNDS:;
#ATTACKS:;

//---------------dance-single - ----------------
#NOTES:
     dance-single:
     :
     Challenge:
     7:
     0.384948,0.439764,0.226349,0.000000,0.000000,250.000000,229.000000,21.000000,0.000000,0.000000,0.000000,0.384948,0.439764,0.226349,0.000000,0.000000,250.000000,229.000000,21.000000,0.000000,0.000000,0.000000:
0000
0000
0000
0000
,
0000
0000
0000
0000
,
0000
0000
0000
0000
,
0000
0000
0000
0000
,
0000
0000
0000
0000
,
0000
0000
0000
0000
,
1001
0000
0010
0000
1000
0001
0100
0000
,
0010
1000
0001
0001
,
0100
0010
1000
0001
1000
0000
0001
0000
,
0001
1000
0001
0001
,
0100
0010
1000
0001
0100
0000
0010
0000
,
0010
0100
0001
0001
,
1000
0100
0010
0100
1000
0000
0001
0000
,
0010
0000
1001
0000
0001
0100
0001
0000
,
1000
1000
0010
0100
0001
0000
0101
0000
,
1001
0000
1100
0000
0001
0000
0010
0010
,
0000
0001
1001
0000
0000
1000
0010
1000
,
0000
1000
0001
0000
0000
0001
0100
0001
,
0000
1000
0001
0000
0100
0000
0100
0000
,
1001
0000
0101
0000
1000
0000
0010
0010
,
0000
1000
1001
0000
0000
0001
0010
0001
,
0000
0001
1000
0000
0000
1000
0100
1000
,
0000
1000
0001
0000
0000
0000
0000
0000
,
1000
0001
0100
0010
1000
0000
1000
0000
,
0001
0100
0010
1000
0001
0000
0001
0000
,
0100
0010
1000
0001
0010
0000
0010
0000
,
1001
0000
0010
0000
0001
1000
0100
0000
,
0010
0001
1000
1000
,
0100
0010
0001
1000
0001
0000
1000
0000
,
1000
0001
1000
1000
,
0100
0010
0001
1000
0100
0000
0010
0000
,
0010
0100
1000
1000
,
0001
0100
0010
0100
0001
0000
1000
0000
,
0010
0000
1001
0000
1000
0100
1000
0000
,
0001
0001
0010
0100
1000
0000
1100
0000
,
1001
0000
1100
0000
0001
0000
0010
0010
,
0000
0001
1001
0000
0000
1000
0010
1000
,
0000
1000
0001
0000
0000
0001
0100
0001
,
0000
0001
1000
0000
0100
0000
0100
0000
,
1001
0000
0101
0000
1000
0000
0010
0010
,
0000
1000
1001
0000
0000
0001
0010
0001
,
0000
0001
1000
0000
0000
1000
0100
1000
,
0000
0001
1000
0000
0000
0000
0000
0000
,
0001
1000
0100
0010
0001
0000
0001
0000
,
0001
0100
0010
1000
0100
0000
0100
0000
,
1000
0010
1000
0001
0010
0000
0010
0000
,
1001
0000
1000
0000
0010
1000
0100
0000
,
1000
0001
0100
0010
1000
0000
1000
0000
,
1000
0100
0010
0001
0100
0000
0100
0000
,
0001
0010
0001
1000
0010
0000
0010
0000
,
1001
0000
0001
0000
0010
0001
0100
0000
,
0110
0000
0000
0000
;

//---------------dance-single - ----------------
#NOTES:
     dance-single:
     :
     Beginner:
     1:
     0.164758,0.247367,0.053893,0.000000,0.000000,107.000000,102.000000,5.000000,0.000000,0.000000,0.000000,0.164758,0.247367,0.053893,0.000000,0.000000,107.000000,102.000000,5.000000,0.000000,0.000000,0.000000:
0000
0000
0000
0000
,
0000
0000
0000
0000
,
0000
0000
0000
0000
,
0000
0000
0000
0000
,
0000
0000
0000
0000
,
0000
0000
0000
0000
,
0000
0000
0000
0000
,
1000
0000
0001
0000
,
1000
1000
1000
0000
,
0001
0000
1000
0000
,
0001
0001
0001
0000
,
1000
0000
1000
0000
,
0001
0000
0001
0000
,
1000
0000
0001
0000
,
1000
0001
1000
0000
,
1001
0000
0001
0000
,
1000
0001
0000
0000
,
1000
1000
0000
0000
,
0001
0001
0000
0000
,
1001
0000
0001
0000
,
1000
0001
0000
0000
,
1000
1000
0000
0000
,
0001
0001
0000
0000
,
1000
0000
0001
0000
,
1000
0000
0001
0000
,
1000
0001
1000
0000
,
0001
1000
0001
0000
,
1000
0000
0001
0000
,
1000
1000
1000
0000
,
0001
0000
1000
0000
,
0001
0001
0001
0000
,
1000
0000
1000
0000
,
0001
0000
0001
0000
,
1000
0000
0001
0000
,
1000
0001
1000
0000
,
1001
0000
0001
0000
,
1000
0001
0000
0000
,
1000
1000
0000
0000
,
0001
0001
0000
0000
,
1001
0000
0001
0000
,
1000
0001
0000
0000
,
1000
1000
0000
0000
,
0001
0001
0000
0000
,
1000
0000
0001
0000
,
1000
0000
0001
0000
,
0001
1000
0001
0000
,
1000
0001
1000
0000
,
0001
0000
1000
0000
,
1000
0000
0001
0000
,
1000
0001
1000
0000
,
0001
1000
0001
1000
,
1001
0000
0000
0000
;

//---------------dance-single - ----------------
#NOTES:
     dance-single:
     :
     Easy:
     2:
     0.178616,0.219882,0.032336,0.000000,0.000000,116.000000,113.000000,3.000000,0.000000,0.000000,0.000000,0.178616,0.219882,0.032336,0.000000,0.000000,116.000000,113.000000,3.000000,0.000000,0.000000,0.000000:
0000
0000
0000
0000
,
0000
0000
0000
0000
,
0000
0000
0000
0000
,
0000
0000
0000
0000
,
0000
0000
0000
0000
,
0000
0000
0000
0000
,
0000
0000
0000
0000
,
0010
0000
1000
0000
,
0001
0001
0010
0000
,
0001
0000
1000
0000
,
0001
0001
0001
0000
,
0100
0000
1000
0000
,
0010
0010
0010
0000
,
0001
0000
0100
0000
,
1000
0010
1000
0000
,
0001
0000
0001
0000
,
0010
0000
1000
0100
,
1000
0000
0100
0000
,
1000
0000
0010
0000
,
1000
0000
1000
0000
,
0010
0000
0001
0100
,
0001
0000
0100
0000
,
1000
0000
0110
0000
,
0001
0000
0001
0010
,
0010
0000
1000
0010
,
1000
0000
0001
0001
,
0001
0000
1000
0010
,
0010
0000
0001
0000
,
1000
1000
0010
0000
,
1000
0000
0001
0000
,
1000
1000
1000
0000
,
0100
0000
0001
0000
,
1000
0010
0010
0000
,
1000
0000
0100
0000
,
0001
0010
0001
0000
,
0001
0000
0001
0000
,
0010
0000
1000
0100
,
1000
0000
0100
0000
,
0001
0000
0010
0000
,
1000
0000
1000
0000
,
0010
0000
0001
0100
,
0001
0000
0100
0000
,
0001
0000
0110
0000
,
1000
0000
1000
0010
,
0010
0000
1000
0100
,
1000
0000
0001
0100
,
0001
0000
0001
0010
,
0001
0000
0001
0010
,
0010
0000
0001
0100
,
0001
0000
1000
0100
,
1000
0000
0010
0010
,
1001
0000
0000
0000
;

//---------------dance-single - ----------------
#NOTES:
     dance-single:
     :
     Medium:
     3:
     0.221730,0.247367,0.097007,0.000000,0.000000,144.000000,135.000000,9.000000,0.000000,0.000000,0.000000,0.221730,0.247367,0.097007,0.000000,0.000000,144.000000,135.000000,9.000000,0.000000,0.000000,0.000000:
0000
0000
0000
0000
,
0000
0000
0000
0000
,
0000
0000
0000
0000
,
0000
0000
0000
0000
,
0000
0000
0000
0000
,
0000
0000
0000
0000
,
0000
0000
0000
0000
,
0001
0000
1001
0000
,
0001
0010
1000
1000
,
0001
0000
0110
0000
,
1000
0010
1000
1000
,
0010
0000
1001
0000
,
0010
0010
1000
0100
,
0100
0000
0110
0000
,
0100
1000
0001
0001
,
0010
0000
0001
1000
,
1000
0000
0001
1000
,
1000
0010
0010
0000
,
1000
0010
0010
0100
,
0010
0000
1000
0001
,
0001
0000
1000
0001
,
0001
0010
0010
0000
,
1000
0001
0010
0100
,
0100
0000
1000
0000
,
0001
1000
0010
0000
,
1000
0000
0100
0000
,
0010
0000
0001
0001
,
1000
0000
1001
0000
,
1000
0010
0001
0001
,
1000
0000
0110
0000
,
0001
0010
0001
0001
,
0010
0000
1001
0000
,
0010
0010
0001
1000
,
0100
0000
0110
0000
,
0100
0001
1000
1000
,
0010
0000
0001
1000
,
1000
0000
0001
1000
,
1000
0010
0010
0000
,
0001
0010
0010
0100
,
0010
0000
1000
0001
,
0001
0000
1000
0001
,
0001
0010
0010
0000
,
0001
1000
0010
0100
,
0100
0000
0001
0000
,
0001
0100
0010
0000
,
1000
0000
1000
0010
,
0010
0001
0001
0001
,
0100
0000
1000
0000
,
1000
0100
0010
0000
,
0001
0000
0001
0010
,
0010
1000
1000
1000
,
0110
0000
0000
0000
;

//---------------dance-single - ----------------
#NOTES:
     dance-single:
     :
     Hard:
     5:
     0.275623,0.302338,0.140121,0.000000,0.000000,179.000000,166.000000,13.000000,0.000000,0.000000,0.000000,0.275623,0.302338,0.140121,0.000000,0.000000,179.000000,166.000000,13.000000,0.000000,0.000000,0.000000:
0000
0000
0000
0000
,
0000
0000
0000
0000
,
0000
0000
0000
0000
,
0000
0000
0000
0000
,
0000
0000
0000
0000
,
0000
0000
0000
0000
,
0110
0000
0000
0001
,
1000
0010
0100
0100
,
0001
0001
1000
0010
,
1000
0010
0100
0001
,
0001
0001
1000
0100
,
1000
0001
0100
0100
,
0010
0010
1000
0001
,
1000
0010
1000
0100
,
1000
0001
0010
0001
,
0001
0000
0001
0000
0010
0000
0100
0100
,
0000
1000
1000
0000
0000
0000
0000
0000
,
0001
1001
1000
0001
,
0010
1001
1000
0010
,
1000
0000
1000
0000
0010
0000
0100
0100
,
0000
0001
0001
0000
0000
0000
0000
0000
,
1000
1001
0001
1000
,
0010
1001
0001
0010
,
0010
0000
0001
1000
,
0100
0000
0010
0001
,
1000
0010
0100
0010
,
0110
0000
0000
1000
,
0001
0010
0100
0100
,
1000
1000
0001
0010
,
0001
0010
0100
1000
,
1000
1000
0001
0100
,
0001
1000
0100
0100
,
0010
0010
0001
1000
,
0001
0010
0001
0100
,
0001
1000
0010
1000
,
0001
0000
0001
0000
0010
0000
0100
0100
,
0000
1000
1000
0000
0000
0000
0000
0000
,
0001
1001
1000
0001
,
0010
1001
1000
0010
,
1000
0000
1000
0000
0010
0000
0100
0100
,
0000
0001
0001
0000
0000
0000
0000
0000
,
1000
1001
0001
1000
,
0010
1001
0001
0010
,
0010
0000
1000
0001
,
0010
0000
0010
0001
,
1000
0001
0100
0010
,
0110
0000
0010
1000
,
0010
0000
0001
1000
,
0010
0000
0010
1000
,
0001
1000
0100
0010
,
0110
0100
0010
0001
,
0011
0000
0000
0000
;
