#TITLE:全部抱きしめて;
#TITLETRANSLIT:Zenbu dakishimete;
#BANNER:Zenbu dakishimete.png;
#BACKGROUND:Zenbu dakishimete-bg.png;
#CDTITLE:./CDTitles/DDR KIDS.png;
#MUSIC:Zenbu dakishimete.ogg;
#SAMPLESTART:64.642;
#SAMPLELENGTH:15;
#OFFSET:1.868;
#BPMS:0=128.36;
#NOTES:
     dance-single:
     :
     Easy:
     2:
     :
0000
0000
0000
0000
,
0000
0000
0000
0000
,
0000
0000
0000
0000
,
0010
0000
0000
0000
,
0000
0000
0000
0000
,
0010
0000
0000
0000
,
0000
0000
0000
0000
,
0010
0000
0000
0000
,
0000
0000
0000
0000
,
0010
0000
0000
0000
,
0010
0000
0001
0000
,
1000
0000
0000
0000
,
1000
0000
0000
0000
,
0001
0000
0000
0000
,
0001
0000
0000
0000
,
0010
0000
0000
0000
,
0010
0000
0000
0000
,
0001
0000
0001
0000
,
0001
0000
0001
0000
,
1000
0000
0000
0000
,
1000
0000
1000
0000
,
1000
0000
0000
0000
,
1000
0010
1000
0010
,
1000
0000
0000
0000
,
0010
0000
0000
0000
,
0010
0000
0001
0000
,
0010
0001
0010
0001
,
0010
0000
0000
0000
,
0100
0000
0000
0000
,
0001
0000
0010
0000
,
0001
0000
0001
0000
,
0100
0000
0100
0000
,
1000
0000
1000
0000
,
0001
0000
0000
0000
,
0010
0010
1000
1000
,
0100
1000
0000
0000
,
0001
0001
0001
0001
,
0010
0000
0000
0000
,
1000
0000
1000
0000
,
0010
0000
0000
0000
,
1000
1000
1000
1000
,
0100
0000
0000
0000
,
0001
0000
0001
0000
,
0010
0000
0000
0000
,
0010
0000
0001
0000
,
0010
0001
1000
0100
,
1000
0000
0000
0000
,
0010
0000
1000
0000
,
0010
0000
1000
0000
,
0010
1000
0001
0100
,
0001
0000
0000
0000
,
0000
0000
0000
0000
,
0010
0000
0000
0000
,
0010
0000
0000
0000
,
0010
0000
0001
0000
,
0010
0000
0001
0000
,
0010
0000
0000
0000
,
1000
0000
0000
0000
;
