#TITLE:WAになっておどろう;
#TITLETRANSLIT:WA ni natte odorou;
#BANNER:WA ni natte odorou.png;
#BACKGROUND:WA ni natte odorou-bg.png;
#CDTITLE:./CDTitles/DDR KIDS.png;
#MUSIC:WA ni natte odorou.ogg;
#SAMPLESTART:47.391;
#SAMPLELENGTH:15;
#OFFSET:2.485;
#BPMS:0=96.26;
#NOTES:
     dance-single:
     :
     Easy:
     2:
     :
0000
0000
0000
0000
,
0000
0000
0000
0000
,
0000
0000
0000
0000
,
0000
0001
0000
0001
,
0000
0001
0000
1000
,
0000
0001
0000
1000
,
0000
0001
0010
0001
,
0000
1000
0000
1000
,
0000
1000
0000
1000
,
0010
0001
0100
1000
,
0000
0000
0010
0001
0000
0000
0000
0000
,
0000
0001
0000
0001
,
0000
0001
0000
0001
,
0001
0010
0100
1000
,
0100
0000
0100
1000
0000
0000
0000
0000
,
0000
0010
0000
0010
,
0000
0000
0010
0000
0001
0010
0001
0010
,
0001
0001
0100
0000
,
0000
0010
0000
0010
,
0000
0010
0000
1001
,
0000
0010
0000
1000
,
0010
0010
1000
1000
,
0010
0001
0100
1000
,
0000
1000
1000
1000
,
0000
0010
0000
0001
,
0010
0010
0001
0001
,
0010
1000
0100
0001
,
0000
0001
0001
0001
,
0000
0001
0000
1000
,
0000
0010
1000
0100
,
0000
0001
1000
0001
,
0000
0010
0000
0100
,
0000
1000
0000
0001
,
0000
0000
1000
0000
0100
1000
0100
1000
,
0100
0100
1000
0000
,
0010
0000
0001
0000
,
0001
0000
1000
0000
,
0000
0000
0010
0000
,
0010
0000
0001
1000
;
