#TITLE:SHAKE;
#BANNER:SHAKE.png;
#BACKGROUND:SHAKE-bg.png;
#CDTITLE:./CDTitles/DDR KIDS.png;
#MUSIC:Shake.ogg;
#SAMPLESTART:69.327;
#SAMPLELENGTH:15;
#OFFSET:1.89;
#BPMS:0=126.35;
#NOTES:
     dance-single:
     :
     Easy:
     4:
     :
0000
0000
0000
0000
,
0000
0000
0000
0000
,
0000
0000
0000
0000
,
0000
1000
0000
0000
,
0000
0001
0000
0000
,
0000
1000
0000
1000
,
0000
0010
1000
0010
,
0000
0001
0000
0001
,
0000
0001
0010
0001
,
0000
1000
0000
0001
,
0000
0000
1000
0000
0100
1000
0100
0000
,
0000
0001
0000
0001
,
0010
0000
0000
0000
,
0010
0010
0001
0010
,
0010
1000
0100
0100
,
0000
1000
0100
1000
,
0010
0010
0100
0010
,
0000
1000
0010
1000
,
0010
0010
1000
0010
,
1000
0100
0010
0001
,
0100
0000
0001
0000
0100
0001
0100
0001
,
0100
0001
0010
0001
,
0100
0001
0010
0100
,
0000
1000
0010
1000
,
0000
0010
0010
0001
,
0000
0001
0000
1000
,
0010
1000
0100
0001
,
0000
0010
0000
1000
,
0000
0010
0001
0100
,
0010
1000
0100
1000
,
0000
0010
0000
0001
,
0010
0001
0010
0001
,
0010
0001
0100
0001
,
0000
0100
1000
0100
,
0100
0100
1000
0100
,
0000
0001
0000
1000
,
0010
1000
0010
1000
,
0010
0000
1001
0000
0001
0100
0001
0100
,
0001
0001
0010
0001
,
1000
0100
0010
0001
,
0000
0001
0000
0001
,
0010
0000
1000
0000
0010
1000
0100
1000
,
0010
0010
0100
0010
,
1000
0100
1000
0100
,
0000
0001
0010
0001
,
0010
1000
0100
1000
,
0001
0000
0010
0000
0100
1000
0100
1000
,
0000
0001
0000
0001
,
0000
0001
0000
1000
,
0000
1000
0000
1000
,
0000
1000
0000
1000
,
0000
0010
0000
0010
,
0000
0010
0000
0010
,
0000
0001
0000
1000
,
0000
0001
0000
1000
;
