#TITLE:おどるポンポコリン;
#TITLETRANSLIT:Odoru Pompokolin;
#BANNER:Odoru Pompokolin.png;
#BACKGROUND:Odoru Pompokolin-bg.png;
#CDTITLE:./CDTitles/DDR KIDS.png;
#MUSIC:Odoru Pompokolin.ogg;
#SAMPLESTART:52.469;
#SAMPLELENGTH:15;
#OFFSET:1.684;
#BPMS:0=142.4;
#NOTES:
     dance-single:
     :
     Easy:
     2:
     :
0000
0000
0000
0000
,
0000
0000
0000
0000
,
0000
0000
0000
0000
,
1000
0000
0000
0000
,
1000
0000
0000
0000
,
1000
0000
0000
0000
,
0001
0000
0000
0000
,
0010
0000
0000
0000
,
0010
0000
0000
0000
,
0010
0000
0000
0000
,
0001
0000
0000
0000
,
1000
0000
0000
0000
,
0000
0000
1000
1000
,
0000
0000
0000
0000
,
0010
0000
0000
0000
,
0010
0000
0000
0000
,
0000
0000
1000
0000
,
0000
0000
0010
0000
,
0000
0000
0010
0000
,
0000
0000
0010
0000
,
0000
0000
0010
0000
,
1000
0000
0000
0000
,
0001
0000
0000
0000
,
0010
0000
1000
0000
,
1000
0000
1000
1000
,
0000
0000
0001
0000
,
0000
0000
0001
0001
,
0000
0000
0001
0000
,
0000
0000
0010
0010
,
0000
0000
1000
0000
,
0010
0000
1000
0000
,
0010
0000
0001
0000
,
0001
0000
0001
0001
,
0000
0000
1000
0000
,
0001
0000
0001
0000
,
0000
0000
1000
0000
,
0001
0000
0000
0000
,
1000
0000
1000
0000
,
0000
0000
0010
0000
,
1000
0000
1000
0000
,
1000
0000
0100
0000
,
1000
0000
0001
0000
,
1000
0000
1000
1000
,
0000
0000
1000
0000
,
0001
0000
1000
0000
,
0000
0000
0001
0000
,
1000
0000
0010
0000
,
0000
0000
0000
0000
,
0000
0000
0000
0000
,
0010
0000
0010
0000
,
1001
0000
0000
1001
;
