#TITLE:LOVEマシーン;
#TITLETRANSLIT:LOVE machine;
#BANNER:LOVE machine.png;
#BACKGROUND:LOVE machine-bg.png;
#CDTITLE:./CDTitles/DDR KIDS.png;
#MUSIC:LOVE machine.ogg;
#SAMPLESTART:93.071;
#SAMPLELENGTH:15;
#OFFSET:0.03;
#BPMS:0=131.5;
#NOTES:
     dance-single:
     :
     Easy:
     3:
     :
0000
0000
0000
0000
,
0000
0000
0000
0000
,
0000
0000
0000
0000
,
0000
0000
0000
0000
,
0000
0000
0000
0000
,
0000
0000
0000
0000
,
0000
0000
0000
0000
,
1000
0000
0000
0000
,
0001
0000
0000
0000
,
1000
0000
0001
1000
,
0001
0001
1000
1000
,
0001
0001
1000
0001
,
1000
1000
0001
0001
,
1000
0000
0000
0000
,
0001
0001
1000
1000
,
0001
0001
1000
0001
,
1000
1000
0001
0001
,
1000
0000
0000
0000
,
1000
0000
0001
0000
,
1000
0000
0001
0001
,
1000
0000
0001
0000
,
1000
0010
0100
0001
,
1000
0000
0001
0000
,
1000
0000
0001
1000
,
0001
0000
0000
0000
1000
0000
0001
1000
,
0000
0000
0000
0000
,
0010
0000
0010
0000
,
0010
0000
1000
0001
,
0010
0000
0010
0000
,
0001
0010
0100
1000
,
0001
0000
0001
0000
,
1000
0000
1000
1000
,
1000
0000
1000
0000
,
1000
0100
0010
0001
,
1000
0000
0001
0000
,
1000
0000
0000
0000
,
0001
0000
1000
0000
,
0001
0000
0000
0000
,
0010
0000
0100
0000
,
0010
0000
0100
0000
,
0010
0000
0100
0000
,
0010
1000
0001
0100
,
0001
0000
0001
0000
,
1000
0000
1000
0000
,
0001
0000
0000
0000
0001
0000
0000
0010
,
0000
0000
0000
0000
,
1000
0000
0010
0000
,
1000
1000
0010
0010
,
1000
0000
0000
0000
,
0001
0000
0000
0000
,
0001
0001
0010
1001
,
1001
0000
1000
0000
,
0010
1000
0100
1000
,
0001
0000
1000
0000
,
0001
0010
0001
0100
,
0001
0000
1000
0000
,
0010
1000
0100
1000
,
0001
0000
1000
0000
,
0001
0001
1000
1000
,
0001
0000
0000
0000
,
1000
0000
0000
0000
,
0001
0000
0000
0000
,
1000
0000
0000
0000
;
