#TITLE:ダメダメのうた;
#TITLETRANSLIT:Dame dame no uta;
#BANNER:Dame dame no uta.png;
#BACKGROUND:Dame dame no uta-bg.png;
#CDTITLE:./CDTitles/DDR KIDS.png;
#MUSIC:Dame dame no uta.ogg;
#SAMPLESTART:2.396;
#SAMPLELENGTH:15;
#OFFSET:0.003;
#BPMS:0=163.46;
#NOTES:
     dance-single:
     :
     Easy:
     2:
     :
0000
0000
0000
0000
,
0000
0000
0000
0000
,
0000
0000
0000
0000
,
0000
0000
0000
0000
,
0010
0000
0000
0010
0000
0000
0000
0000
,
0000
0000
0000
0000
,
0010
0000
0000
0000
,
0000
0000
0000
0000
,
0010
0000
0000
0010
0000
0000
0000
0000
,
0000
0000
0000
0000
,
0010
0000
0001
0000
,
0010
0000
1000
0000
,
0100
0000
1000
0000
,
0010
0000
0000
0000
,
0010
0000
1000
0000
,
0010
0000
0001
0000
,
0010
0000
1000
0000
,
0010
0000
0000
0000
,
0001
0000
0001
0000
,
0000
0001
0001
0000
,
1000
0000
1000
0000
,
0000
1000
1000
0000
,
0100
0000
0100
0000
,
0000
0100
0100
0000
,
0010
0000
0010
0000
,
0000
0010
0010
0000
,
1000
0000
0000
0000
,
0000
0000
0000
0000
,
0001
0000
0000
0001
0000
0000
0000
0000
,
0010
0000
1000
0000
,
0100
0000
0100
0000
,
1000
0000
0010
0000
,
0000
0000
0000
0000
,
0010
0000
0010
0000
,
0100
0000
0100
0000
,
1000
0000
0001
0000
,
1000
0000
0001
0000
,
0010
0000
0010
0000
,
0100
0000
0100
0000
,
1000
0000
0001
0000
,
1000
0000
0001
0000
,
0100
0000
0100
0000
,
0010
0000
0001
0000
,
0010
0000
0001
0000
,
0010
0000
1000
0000
,
0010
0000
1000
0000
,
0010
0000
0010
0000
,
0010
0000
0100
0000
,
0010
0000
0000
0000
,
0000
0000
0000
0000
,
0001
0000
0000
0001
0000
0000
0000
0000
,
0010
0000
0010
0000
,
1000
0000
0000
1000
0000
0000
0000
0000
,
0010
0000
0010
0000
,
1000
0000
1000
0000
,
0010
0000
1000
0000
,
0100
0000
0100
0000
,
0001
0000
0001
0000
,
0010
0000
1000
0000
,
0001
0000
1000
0000
,
0100
0000
0100
0000
,
1000
0000
1000
0000
,
0010
0000
0100
0000
,
1000
0000
0100
0000
,
0001
0000
0010
0000
,
1000
0000
0100
0000
,
0010
0000
0000
0000
;
