#VERSION:0.83;
#TITLE:昊天;
#SUBTITLE:-koten-;
#ARTIST:RONDO;
#TITLETRANSLIT:;
#SUBTITLETRANSLIT:;
#ARTISTTRANSLIT:;
#GENRE:;
#ORIGIN:;
#TAGS:;
#CREDIT:;
#BANNER:koten.png;
#BACKGROUND:koten-BG.png;
#PREVIEWVID:;
#JACKET:koten-Jacket.png;
#CDIMAGE:;
#DISCIMAGE:;
#LYRICSPATH:;
#CDTITLE:;
#MUSIC:Koten.ogg;
#OFFSET:0.979999;
#SAMPLESTART:51.401852;
#SAMPLELENGTH:12.000000;
#SELECTABLE:YES;
#BPMS:0.000000=130.000000
,20.000000=260.000000
,84.000000=65.000000
,99.000000=130.000000
,101.000000=260.000000
,349.000000=65.000000
,352.000000=130.000000
,354.000000=260.000000
;
#STOPS:;
#DELAYS:;
#WARPS:;
#TIMESIGNATURES:0.000000=4=4
;
#TICKCOUNTS:0.000000=4
;
#COMBOS:0.000000=1
;
#SPEEDS:0.000000=1.000000=0.000000=0
;
#SCROLLS:0.000000=1.000000
;
#FAKES:;
#LABELS:0.000000=Song Start
;
#BGCHANGES:;
#KEYSOUNDS:;
#ATTACKS:
;

//---------------dance-single - ----------------
#NOTEDATA:;
#CHARTNAME:;
#CHARTHASH:3424357287;
#STEPSTYPE:dance-single;
#BANNER:;
#DESCRIPTION:;
#CHARTSTYLE:;
#DIFFICULTY:Easy;
#METER:8;
#METERF:8.000000;
#LASTSECONDHINT:113.481537;
#RADARVALUES:0.000000,0.000000,0.000000,0.000000,0.000000,0.000000,0.000000,0.000000,0.000000,0.000000,0.000000,0.000000,0.000000,0.000000,0.000000,0.000000,0.000000,0.000000,0.000000,0.000000,0.000000,0.000000,0.000000,0.000000,0.000000,0.000000,0.000000,0.000000;
#CREDIT:;
#NOTES:
0000
0000
0000
0000
,
0000
0000
0000
0000
,
0000
0000
0000
0000
,
0000
0000
0000
0000
,
0000
0000
0000
0000
,
1000
0100
1000
0100
,
1000
0100
1000
0100
,
0001
0010
0001
0010
,
0001
0010
0001
0010
,
1000
0001
1000
0001
,
1000
1000
0001
0001
,
0100
0010
0100
0010
,
0100
0100
0010
0010
,
0001
0100
0001
0100
,
0001
0100
0001
0100
,
1000
0010
1000
0010
,
1000
0010
1000
0010
,
0010
0100
0010
0100
,
0010
0010
0100
0100
,
0001
1000
0001
1000
,
0001
0001
1000
1000
,
1000
0010
0000
0010
,
0001
0010
0000
0010
,
0100
0001
0000
0001
,
0010
1000
0000
1001
,
0000
0000
1000
0100
,
1000
0000
1000
0100
,
1000
0000
1000
0100
,
1000
0000
1000
0010
,
1000
0000
0100
0010
,
0100
0000
0100
0010
,
0100
1000
0000
1000
,
0000
0001
0000
0001
,
0000
0000
0001
0010
,
0001
0000
0001
0010
,
0001
0000
0001
0010
,
0001
0000
0001
0100
,
0001
1000
0000
1000
,
0000
0001
0000
0001
,
0000
0010
0000
0010
,
0000
0000
0000
0000
,
0000
1000
0100
1000
,
0100
1000
0100
1000
,
0100
0001
0100
0001
,
0100
0001
0100
0001
,
0100
1000
0001
1000
,
0001
1000
0001
1000
,
0001
0010
0000
0010
,
0000
0100
0000
0100
,
0000
0000
1000
0100
,
1000
0000
0100
0010
,
0100
0000
0010
0001
,
0010
0000
0001
1000
,
0001
0001
0000
0001
,
0000
1000
0000
1000
,
0000
0001
0000
0001
,
0000
0100
0000
0100
,
0000
1000
0000
1000
,
0000
0001
0000
1000
,
0000
0001
0000
0001
,
0000
1000
0000
0001
,
0000
0100
0000
0100
,
0000
0010
0000
0100
,
0000
0010
0000
0010
,
0000
0100
0000
0010
,
0000
0000
0001
0010
,
0001
0000
0010
0100
,
0010
0000
0100
1000
,
0100
0000
1000
0001
,
1000
0001
0000
0001
,
0000
0010
0000
0010
,
0000
0100
0000
0100
,
0000
1000
0000
1000
,
0000
1001
0000
0000
0000
0000
0000
0000
,
0000
1001
0000
0000
0000
0000
0000
0000
,
0000
0220
0000
0000
0000
0000
0000
0000
,
0000
0000
0330
0000
,
0000
0110
0000
0000
0000
0000
0000
0000
,
0000
0110
0000
0000
0000
0000
0000
0000
,
0000
2002
0000
0000
0000
0000
0000
0000
,
0000
0000
3003
0000
,
0000
1000
0000
0000
1000
0000
1000
0000
,
0000
0001
0000
0000
0001
0000
0001
0000
,
0000
0010
0000
0000
0010
0000
0010
0000
,
0000
0000
0000
0000
,
0000
1000
0000
1000
,
0000
0001
0000
0001
,
0000
0110
0000
0000
,
0000
0000
1000
0010
,
1000
0010
1000
0010
,
0100
0100
0001
0010
,
0001
0010
0001
0010
,
0100
0100
1000
0001
,
1000
0001
1000
0001
,
0100
0100
0010
0100
,
0010
0100
0010
0100
,
1000
0001
1000
0100
,
1000
0100
1000
0100
,
0010
0010
0001
0100
,
0001
0100
0001
0100
,
0010
0010
0001
1000
,
0001
1000
0001
1000
,
0010
0010
0100
0010
,
0100
0010
1001
0000
,
1001
0000
1001
0000
;

//---------------dance-single - ----------------
#NOTEDATA:;
#CHARTNAME:;
#CHARTHASH:2008217799;
#STEPSTYPE:dance-single;
#BANNER:;
#DESCRIPTION:;
#CHARTSTYLE:;
#DIFFICULTY:Medium;
#METER:13;
#METERF:13.000000;
#LASTSECONDHINT:113.366158;
#RADARVALUES:0.000000,0.000000,0.000000,0.000000,0.000000,0.000000,0.000000,0.000000,0.000000,0.000000,0.000000,0.000000,0.000000,0.000000,0.000000,0.000000,0.000000,0.000000,0.000000,0.000000,0.000000,0.000000,0.000000,0.000000,0.000000,0.000000,0.000000,0.000000;
#CREDIT:;
#NOTES:
0000
0000
0000
0000
,
0000
0000
0000
0000
,
0000
0000
0000
0000
,
0000
0000
0000
0000
,
0000
0000
0000
0000
,
1010
0000
0000
0011
0000
0000
1010
0000
,
0000
0011
0000
0000
0001
0000
0001
0000
,
0011
0000
0000
0101
0000
0000
0011
0000
,
0000
0101
0000
0000
1000
0000
1000
0000
,
0101
0000
0000
1100
0000
0000
0101
0000
,
0000
1100
0000
0000
0001
0000
0001
0000
,
1100
0000
0000
1010
0000
0000
1100
0000
,
0000
1010
0000
0000
0010
0000
0010
0000
,
0011
0000
0000
1100
0000
0000
0011
0000
,
0000
1100
0000
0000
0001
0000
0001
0000
,
1010
0000
0000
0011
0000
0000
1010
0000
,
0000
0011
0000
0000
1000
0000
1000
0000
,
1010
0000
0000
0101
0000
0000
1010
0000
,
0000
0101
0000
0000
0001
0000
0001
0000
,
0101
0000
0000
1100
0000
0000
0101
0000
,
0000
1100
0000
0000
0100
0000
0100
0000
,
0200
0000
0000
0000
,
2300
0000
0000
0000
,
3020
0000
0000
0000
,
0032
0000
0000
0000
0003
0000
0001
0001
,
2000
3000
0000
0000
1000
0000
0001
0000
,
1000
0000
0100
0001
,
0100
0000
0010
0001
,
0010
0000
0001
0001
,
0001
0000
0100
0010
,
0100
0000
0010
0100
,
0010
0000
0101
0000
0000
1100
0000
0000
,
1001
0000
0010
0010
,
0010
0000
0001
1000
,
0001
0000
0010
1000
,
0010
0000
0100
1000
,
0100
0000
1000
1000
,
1000
0000
1100
0000
0000
1001
0000
0000
,
0101
0000
0010
0010
,
0010
0000
0011
0000
0000
0110
0000
0000
,
1010
0000
0000
0000
,
0000
0001
0010
0001
,
0010
0001
0010
0010
,
1000
0010
1000
0010
,
1000
0010
1000
0010
,
0010
0001
0100
0001
,
0100
0001
0100
0001
,
0100
0000
0110
0000
0000
0011
0000
0000
,
1100
0000
0001
0001
,
0100
0000
1000
0100
,
1000
0000
0100
0010
,
0100
0000
0010
0001
,
0010
0000
0001
1000
,
0001
0000
1100
0000
0000
1100
0000
0000
,
0101
0000
1000
1000
,
1000
0000
0101
0000
0000
0101
0000
0000
,
2200
0000
0000
0000
,
0000
3300
0020
0000
0000
0000
0000
0000
,
0000
0000
0000
0030
0001
0000
0100
0000
,
0020
0000
0000
0000
0000
0030
0000
0000
,
0100
1000
0010
0010
,
0010
2000
0000
0000
,
0000
3000
0000
0000
,
1001
0000
0010
0000
0000
1010
0000
0000
,
0011
0000
1000
1000
,
0100
0000
0001
0010
,
0001
0000
0010
0100
,
0010
0000
0100
1000
,
0100
0000
1000
0001
,
1000
0100
0000
0010
,
1000
0000
1000
0000
0000
1000
0000
0000
,
1000
0200
0000
0000
,
0000
0310
0000
0000
,
0000
1000
0000
0000
0100
0000
1000
0000
,
0000
0001
0000
0000
0010
0000
0001
0000
,
0000
0022
0000
0000
0000
0000
0000
0000
,
0000
0000
0033
0000
,
0000
1000
0000
0000
0010
0000
1000
0000
,
0000
0001
0000
0000
0100
0000
0001
0000
,
0000
0220
0000
0000
0000
0000
0000
0000
,
0000
0330
0000
0000
,
0000
1000
0000
0000
0001
0000
1000
0000
,
0000
0001
0000
0000
1000
0000
0001
0000
,
0000
0100
0000
0000
0010
0000
0200
0000
,
0000
0000
0000
0000
,
0000
0302
0000
0000
0000
0000
0000
0000
,
0003
0011
0000
1001
,
0000
2200
0000
3300
,
0000
0000
1000
0001
,
1000
0001
1000
0001
,
0011
0011
1000
0010
,
1000
0010
1000
0010
,
0110
0110
1000
0100
,
1000
0100
1000
0100
,
1100
1100
1000
0100
,
1000
0010
1000
0001
,
1001
1001
0001
1000
,
0001
1000
0001
1000
,
1100
1100
0001
0100
,
0001
0100
0001
0100
,
0110
0110
0001
0010
,
0001
0010
0001
0010
,
0011
0011
0001
0010
,
0001
0100
0001
1000
,
1001
0000
1001
1001
0000
0000
0000
0000
;

//---------------dance-single - ----------------
#NOTEDATA:;
#CHARTNAME:;
#CHARTHASH:3654041986;
#STEPSTYPE:dance-single;
#BANNER:;
#DESCRIPTION:;
#CHARTSTYLE:;
#DIFFICULTY:Hard;
#METER:15;
#METERF:0.000000;
#LASTSECONDHINT:113.366158;
#RADARVALUES:0.000000,0.000000,0.000000,0.000000,0.000000,0.000000,0.000000,0.000000,0.000000,0.000000,0.000000,0.000000,0.000000,0.000000,0.000000,0.000000,0.000000,0.000000,0.000000,0.000000,0.000000,0.000000,0.000000,0.000000,0.000000,0.000000,0.000000,0.000000;
#CREDIT:;
#NOTES:
0000
0000
0000
0000
,
0000
0000
0000
0000
,
0000
0000
0000
0000
,
0000
0000
0000
0000
,
0000
0000
0000
0000
,
1000
0001
1000
0010
1000
0100
1000
0001
,
1000
0010
1000
0100
1000
0001
1000
0010
,
0001
1000
0001
0100
0001
0010
0001
1000
,
0001
0100
0001
0010
0001
1000
0001
0100
,
1000
0100
1000
0010
1000
0001
1000
0100
,
1000
0010
1000
0001
1000
0100
1000
0010
,
0001
0010
0001
0100
0001
1000
0001
0010
,
0001
0100
0001
1000
0001
0010
0001
0100
,
1000
0010
0001
0010
1000
0010
0001
0010
,
1000
0010
0001
0010
1000
0010
0001
0010
,
1000
0001
1000
0010
1000
0100
1000
0100
,
1000
0010
1000
0001
1000
0001
1000
0010
,
0001
0100
1000
0100
0001
0100
1000
0100
,
0001
0100
1000
0100
0001
0100
1000
0100
,
0001
0010
0001
0100
0001
1000
0001
1000
,
0001
0100
0001
0010
0001
0010
0001
0100
,
1020
0000
0000
0000
0000
0000
0000
0000
0000
0000
0000
0000
0100
0000
0000
0000
0000
0000
0000
0000
0000
0000
0000
0000
0000
0000
0000
1000
0000
0000
0000
1000
0000
0000
0000
0000
0100
0000
0000
0000
0000
0000
0000
0000
0000
0000
0000
0000
,
0032
0000
0000
0000
0000
0000
0000
0000
0000
0000
0000
0000
0010
0000
0000
0000
0000
0000
0000
0000
0000
0000
0000
0000
0000
0000
0000
1000
0000
0000
0000
1000
0000
0000
0000
0000
0100
0000
0000
0000
0000
0000
0000
0000
0000
0000
0000
0000
,
2003
0000
0000
0000
0000
0000
0000
0000
0000
0000
0000
0000
0100
0000
0000
0000
0000
0000
0000
0000
0000
0000
0000
0000
0000
0000
0000
0001
0000
0000
0000
0001
0000
0000
0000
0000
0010
0000
0000
0000
0000
0000
0000
0000
0000
0000
0000
0000
,
3200
0000
0001
0000
0310
0000
1001
1001
,
0220
0330
1000
0000
0001
0000
0010
0000
,
0100
0000
0010
0100
,
1000
0000
0001
0010
,
0100
0000
0001
1000
,
0001
0000
1000
0100
,
0010
0000
0100
0010
,
0001
0000
2200
0000
3300
0202
0000
0303
,
2002
3003
0001
0100
,
1000
0011
1000
0100
,
0001
0000
1000
0010
,
0001
0000
1000
0100
,
0001
0000
0010
0100
,
0010
0000
0220
0000
0330
0022
0000
0033
,
2002
3003
0001
0010
,
0100
0000
2200
0000
3300
0220
0000
0330
,
0001
0010
0100
1000
,
0001
0000
1000
0000
0100
0010
0000
0010
,
0001
0000
0001
1000
0000
1000
0100
0000
,
0100
0010
1100
0000
0001
0010
0000
0010
,
0100
0000
0100
1000
0000
1000
0001
0000
,
0001
0010
1100
0000
0100
1000
0000
1000
,
0010
0000
0010
0001
0000
0001
0100
0000
,
0110
0000
0011
0000
0000
0110
0000
0000
,
1001
0000
0011
1001
,
1010
0010
0010
0011
,
1100
0000
0100
0101
,
1010
0000
1000
0101
,
1100
0000
1010
0011
,
1001
0000
0010
0000
0010
0100
0000
0001
,
1000
0000
1000
0001
0000
0010
0100
0000
,
0010
0000
0011
0000
0000
0101
0000
0000
,
2100
0000
0000
3200
0000
0000
0000
0000
,
0300
0020
0000
0000
,
0000
0000
0031
0100
,
0020
0000
0000
0030
,
0100
1000
0100
0001
,
0100
2002
0000
0000
,
0000
3003
0000
0000
,
0110
0000
0022
0000
0033
0022
0000
0033
,
2020
3030
0100
0100
,
1000
0000
0100
0100
,
1100
0000
0100
0100
,
0101
0000
1000
0100
,
0110
0000
0100
0001
,
0100
0000
0200
0000
0000
0300
0010
0000
,
1000
0000
0200
0000
0300
2000
0000
3000
,
1000
0200
0000
0000
,
0000
0300
0110
0000
0000
0000
0000
0000
,
0000
0101
0000
0000
1100
0000
1001
0000
,
0000
1100
0000
0000
0101
0000
0110
0000
,
0010
0020
0000
0000
0000
0000
0000
0000
,
0000
0000
0000
0030
,
0000
0011
0000
0000
1010
0000
1001
0000
,
1000
0001
0000
0000
0100
0000
0010
0010
,
0000
0002
0000
0000
0000
0000
0000
0000
,
0000
0003
0000
0000
,
0000
1100
0000
0000
0101
0000
0011
0000
,
0000
0011
0000
0000
1010
0000
1100
0000
,
0000
1100
0000
0000
0101
0000
2002
0000
,
0000
0000
3003
0000
0000
0000
0100
0020
,
0000
0030
0002
0000
0000
0000
0000
0000
,
0003
0000
0022
0000
0000
0033
2020
0000
,
0000
3030
0110
0000
0000
0000
0000
0000
,
0000
0000
0110
0000
1000
0100
1000
0010
,
1000
0100
1000
0010
1000
0100
1000
0010
,
1000
0100
1000
0010
1000
0100
0001
0100
,
1000
0100
0001
0100
1000
0100
0001
0100
,
1000
0100
0001
0100
0001
0010
0001
0100
,
0001
0010
0001
0100
0001
0010
0001
0100
,
0001
0010
0001
0100
1000
0010
0001
0010
,
1000
0010
0001
0010
1000
0010
0001
0010
,
1000
0010
0001
0010
1000
0100
0010
1000
,
0100
0010
0100
0010
0001
0100
0010
0001
,
1000
0100
0010
1000
0010
1000
0100
1000
,
0010
1000
0100
1000
0010
1000
0100
1000
,
0010
1000
0100
1000
0001
0010
0100
0001
,
0010
0100
0010
0100
1000
0010
0100
1000
,
0001
0010
0100
0001
0010
0001
0100
0001
,
0010
0001
0100
0001
0010
0001
0100
0001
,
0110
0000
1001
1001
0000
0000
0000
0000
;

//---------------dance-single - ----------------
#NOTEDATA:;
#CHARTNAME:;
#CHARTHASH:1278702584;
#STEPSTYPE:dance-single;
#BANNER:;
#DESCRIPTION:;
#CHARTSTYLE:;
#DIFFICULTY:Beginner;
#METER:4;
#METERF:4.000000;
#RADARVALUES:0.211406,0.270006,0.051924,0.000000,0.000000,171.000000,165.000000,6.000000,0.000000,0.000000,0.000000,0.000000,0.000000,0.000000,0.211406,0.270006,0.051924,0.000000,0.000000,171.000000,165.000000,6.000000,0.000000,0.000000,0.000000,0.000000,0.000000,0.000000;
#CREDIT:;
#NOTES:
// measure 0
0000
0000
0000
0000
,  // measure 1
0000
0000
0000
0000
,  // measure 2
0000
0000
0000
0000
,  // measure 3
0000
0000
0000
0000
,  // measure 4
0000
0000
0000
0000
,  // measure 5
1000
0000
0001
0000
,  // measure 6
1000
0000
0001
0000
,  // measure 7
0001
0000
1000
0000
,  // measure 8
0001
0000
1000
0000
,  // measure 9
0100
0000
0010
0000
,  // measure 10
0100
0000
0010
0000
,  // measure 11
0010
0000
0100
0000
,  // measure 12
0010
0000
0100
0000
,  // measure 13
1000
0000
0001
0000
,  // measure 14
1000
0000
0001
0000
,  // measure 15
0001
0000
1000
0000
,  // measure 16
0001
0000
1000
0000
,  // measure 17
0100
0000
0010
0000
,  // measure 18
0100
0000
0010
0000
,  // measure 19
0010
0000
0100
0000
,  // measure 20
0010
0000
0100
0000
,  // measure 21
0110
0000
0000
0000
,  // measure 22
0000
0000
0000
0000
,  // measure 23
0000
0000
0000
0000
,  // measure 24
0000
0000
0000
0010
,  // measure 25
0010
1000
0000
0001
,  // measure 26
0000
1000
0000
0001
,  // measure 27
0000
1000
0000
0001
,  // measure 28
0000
0100
0000
0010
,  // measure 29
0000
1000
0000
1000
,  // measure 30
0000
0001
0000
0001
,  // measure 31
0000
1001
0000
0000
,  // measure 32
0000
1001
0000
0000
,  // measure 33
0000
0001
0000
1000
,  // measure 34
0000
0001
0000
1000
,  // measure 35
0000
0001
0000
1000
,  // measure 36
0000
0010
0000
0100
,  // measure 37
0000
0001
0000
0001
,  // measure 38
0000
1000
0000
1000
,  // measure 39
0000
0100
0000
0010
,  // measure 40
0000
0000
0000
0000
,  // measure 41
0000
1000
0000
0100
,  // measure 42
0000
1000
0000
0100
,  // measure 43
0000
0010
0000
0001
,  // measure 44
0000
0010
0000
0001
,  // measure 45
0000
0100
0000
0010
,  // measure 46
0000
0100
0000
0010
,  // measure 47
0000
0001
0000
0001
,  // measure 48
0000
1000
0000
1000
,  // measure 49
0000
0001
0000
1000
,  // measure 50
0000
0001
0000
1000
,  // measure 51
0000
0001
0000
1000
,  // measure 52
0000
0001
0000
1000
,  // measure 53
0000
0010
0000
0010
,  // measure 54
0000
0010
0000
0010
,  // measure 55
0000
0100
0000
0100
,  // measure 56
0000
0100
0000
0100
,  // measure 57
0000
0011
0000
0000
,  // measure 58
0000
0000
0000
0000
,  // measure 59
0000
0001
0000
0000
,  // measure 60
0000
0000
0000
0000
,  // measure 61
0000
1010
0000
0000
,  // measure 62
0000
0000
0000
0000
,  // measure 63
0000
1000
0000
0000
,  // measure 64
0000
0000
0000
0000
,  // measure 65
0000
1000
0000
0100
,  // measure 66
0000
0010
0000
0001
,  // measure 67
0000
0001
0000
1000
,  // measure 68
0000
0001
0000
1000
,  // measure 69
0000
0010
0000
0010
,  // measure 70
0000
0001
0000
0001
,  // measure 71
0000
1000
0000
1000
,  // measure 72
0000
0100
0000
0100
,  // measure 73
0000
0000
0000
0000
,  // measure 74
0000
0000
0000
0000
,  // measure 75
0000
0001
0000
0001
,  // measure 76
0000
1000
0000
1000
,  // measure 77
0000
0000
0000
0000
,  // measure 78
0000
0000
0000
0000
,  // measure 79
0000
0010
0000
0010
,  // measure 80
0000
0100
0000
0100
,  // measure 81
0000
0001
0000
1000
,  // measure 82
0000
0001
0000
1000
,  // measure 83
0000
1000
0000
1000
,  // measure 84
0000
1000
0000
1000
,  // measure 85
0000
0110
0000
0000
,  // measure 86
0000
0000
0000
0000
,  // measure 87
0000
0100
0000
0000
,  // measure 88
0000
0000
1000
0000
,  // measure 89
0100
0000
1000
0000
,  // measure 90
0100
0000
0010
0000
,  // measure 91
0001
0000
0010
0000
,  // measure 92
0001
0000
1000
0000
,  // measure 93
0001
0000
1000
0000
,  // measure 94
0001
0000
0100
0000
,  // measure 95
0010
0000
0100
0000
,  // measure 96
0010
0000
0001
0000
,  // measure 97
0010
0000
0001
0000
,  // measure 98
0010
0000
0100
0000
,  // measure 99
1000
0000
0100
0000
,  // measure 100
1000
0000
0001
0000
,  // measure 101
1000
0000
0001
0000
,  // measure 102
1000
0000
0010
0000
,  // measure 103
0100
0000
0010
0000
,  // measure 104
0100
0000
0000
0000
;
