#TITLE:サーカスへようこそ;
#SUBTITLE:;
#ARTIST:Lyrical Lily;
#TITLETRANSLIT:;
#SUBTITLETRANSLIT:;
#ARTISTTRANSLIT:;
#GENRE:;
#CREDIT:;
#BANNER:Welcome to the Circus.png;
#BACKGROUND:Welcome to the Circus-BG.png;
#LYRICSPATH:;
#CDTITLE:;
#MUSIC:Welcome to the Circus.ogg;
#OFFSET:0.060000;
#SAMPLESTART:47.052452;
#SAMPLELENGTH:12.000000;
#SELECTABLE:YES;
#BPMS:0.000000=135.000000
;
#STOPS:
;
#BGCHANGES:;
#KEYSOUNDS:;
#ATTACKS:;

//---------------dance-single - ----------------
#NOTES:
     dance-single:
     :
     Easy:
     4:
     0.000000,0.000000,0.000000,0.000000,0.000000,0.000000,0.000000,0.000000,0.000000,0.000000,0.000000,0.000000,0.000000,0.000000,0.000000,0.000000,0.000000,0.000000,0.000000,0.000000,0.000000,0.000000:
0000
0000
0000
0000
,
0000
0000
0000
0000
,
0000
0000
0000
0000
,
0000
0000
0000
0000
,
0000
0000
1000
0001
,
1000
0001
1000
0000
,
0001
0000
0110
0000
,
0000
0000
1001
0000
,
0000
0000
0001
0001
,
0010
0010
0001
0000
,
0010
0000
0100
0100
,
1000
1000
0100
0000
,
1000
0000
0010
0100
,
0010
0100
0001
0000
,
1000
0000
0001
1000
,
0001
1000
0100
0000
,
0010
0000
1000
0000
,
1100
0000
1000
0000
,
1010
0000
0001
0000
,
0101
0000
0001
0000
,
0011
0000
0100
0000
,
1100
0000
0100
0000
,
0101
0000
0010
0000
,
1010
0000
0010
0000
,
0011
0000
1001
0000
,
0000
0000
0000
0000
,
0000
0000
0001
1000
,
0001
1000
0010
0010
,
0100
0100
1000
0001
,
1000
0001
0100
0100
,
0010
0010
0000
0001
,
0000
0001
0000
1000
,
0000
1000
0000
0001
,
0000
1000
0001
0001
,
1000
1000
0010
0100
,
0010
0100
0001
0001
,
1000
1000
0100
0010
,
0100
0010
1000
1000
,
0001
0001
1100
0000
,
0000
0000
0101
0000
,
0000
0000
1000
1000
,
0001
0001
0100
0010
,
0100
0010
0110
0000
,
0000
0000
0000
0000
,
0000
0000
0000
0000
,
0000
0000
1000
0100
,
0010
0001
1001
0000
,
0000
0000
0000
0000
,
0000
0000
0001
0010
,
0100
1000
1001
0000
,
0000
0000
1000
0100
,
1000
0100
0010
0010
,
0001
0001
0001
0100
,
0001
0100
0010
0010
,
1000
1000
0000
0001
,
0000
0001
0000
1000
,
0000
1000
0000
0001
,
0000
1000
0001
0001
,
1000
1000
1000
0010
,
1000
0010
0100
0100
,
0001
0001
0001
0010
,
0001
0010
0100
0100
,
1000
1000
1010
0000
,
0000
0000
0011
0000
,
0000
0000
0001
0010
,
0001
0010
0100
1000
,
0100
1000
1001
0000
;

//---------------dance-single - ----------------
#NOTES:
     dance-single:
     :
     Medium:
     7:
     0.000000,0.000000,0.000000,0.000000,0.000000,0.000000,0.000000,0.000000,0.000000,0.000000,0.000000,0.000000,0.000000,0.000000,0.000000,0.000000,0.000000,0.000000,0.000000,0.000000,0.000000,0.000000:
0000
0000
0000
0000
,
0000
0000
0000
0000
,
0000
0000
0000
0000
,
0000
0000
0000
0000
,
0000
0000
0000
0000
0001
0010
1000
0010
,
0001
0000
0000
0000
1000
0100
0010
0100
,
1000
0000
1100
0000
,
0101
0000
2002
0000
,
0000
0000
3003
0000
0001
0001
0001
0001
,
0001
0000
0000
0000
1000
1000
1000
1000
,
1000
0000
0000
0000
0001
0001
0010
0010
,
0010
0000
0000
0000
2000
0000
0100
0100
,
3100
0000
0000
0000
1000
1000
0100
0100
,
0011
0000
1010
0000
0001
0001
0010
0010
,
1100
0000
0101
0000
1000
1000
1000
0000
,
1000
0010
1000
0000
0001
0100
0001
0100
,
0001
1001
0002
0000
,
0003
0000
2000
0000
,
3000
0000
0020
0000
,
0030
0000
0200
0000
,
0300
0000
2000
3001
,
0002
1003
0200
0310
,
0020
0130
1000
1000
,
1001
1001
0001
0001
,
1001
1001
0220
0000
,
0000
0000
0330
0000
1000
0100
0010
0001
,
0100
1000
0010
0001
1100
0000
0011
0000
,
0011
1100
0001
0001
,
1000
1000
0011
1100
,
1100
0011
1000
1000
,
0001
0000
0001
0000
1000
0100
0010
0000
,
0100
0010
0001
0000
0010
0100
1000
0000
,
0001
0010
0100
0000
1000
0001
1000
0001
,
1000
0100
0010
0001
1000
0010
1000
0001
,
0220
0330
1010
0101
,
0101
1010
0100
0100
,
0010
0010
0101
1010
,
1010
0101
0010
0010
,
0100
0100
1001
0000
,
1001
0000
0110
0000
,
0110
0000
1000
1000
2000
0000
0000
0000
,
3001
0000
0001
0001
,
1000
1000
0000
2002
0000
0000
0000
0000
,
0000
0000
0000
0000
,
0000
0000
3003
0000
1000
0001
1000
0001
,
0010
0100
0010
0100
0001
0010
0001
0010
,
0100
1000
0100
1000
0002
0000
0000
0000
,
0000
0000
0000
0000
,
0000
0000
0003
0000
1000
0100
1000
0100
,
0010
0001
0010
0001
2000
0000
0000
0000
,
0000
0000
3000
1001
,
1001
0000
1001
0000
0001
0010
0001
0000
,
0010
0001
0010
0000
0110
0000
0110
0000
,
0110
0000
0110
0000
1000
0100
1000
0000
,
0100
1000
0100
0000
1000
0000
0001
0000
,
0100
0000
0100
0000
0001
1000
0001
0100
,
0001
0010
1000
0001
0200
0000
0000
0000
,
0300
1000
0001
1000
0001
1000
0001
0010
,
1000
0100
0001
1000
0011
0000
0011
0000
,
0011
0000
0011
0000
0001
0010
0100
0000
,
0010
0100
1000
0000
1100
0000
1100
0000
,
1100
0000
1100
0000
1000
0100
0010
0000
,
0100
0010
0001
0000
1001
0000
0000
0000
,
1100
0000
0110
0000
,
0101
0000
0000
0000
0001
1000
0001
0000
,
0001
0100
0001
0000
1000
0001
1000
0000
,
1000
0010
1000
0000
2002
0000
0000
0000
,
0000
0000
0000
0000
,
3003
0000
0000
0000
;

//---------------dance-single - ----------------
#NOTES:
     dance-single:
     :
     Hard:
     11:
     0.000000,0.000000,0.000000,0.000000,0.000000,0.000000,0.000000,0.000000,0.000000,0.000000,0.000000,0.000000,0.000000,0.000000,0.000000,0.000000,0.000000,0.000000,0.000000,0.000000,0.000000,0.000000:
0000
0000
0000
0000
,
0000
0000
0000
0000
,
0000
0000
0000
0000
0000
0000
0000
0000
1000
0000
0001
0000
0010
0000
0001
2000
,
0000
0000
3000
0000
1000
0000
0100
0000
0010
0000
0100
2000
0000
0000
3000
0000
,
1000
0000
0001
0000
1000
0000
0001
0000
0001
0000
0100
0000
1000
0000
0100
0002
,
0000
0000
0003
0000
0001
0000
0010
0000
0100
0000
0010
0002
0000
0000
0003
0000
,
0200
0000
0000
0000
1300
0000
1100
0000
0010
0000
0001
0020
0000
0000
0000
0000
,
0000
0000
0030
0000
0101
0000
1000
0200
0000
0000
0000
0000
0300
0000
0110
0000
,
0220
0000
0000
0330
0001
0001
0001
0001
,
0002
0000
0000
0000
0000
0000
0000
0000
0003
0020
0000
0000
0000
0000
0000
0000
0000
0000
2030
0000
0000
0000
0000
0000
0000
0000
0000
0000
0000
0000
3100
0000
0000
0000
0000
0000
0010
0000
0000
0000
0000
0000
0100
0000
0000
0000
0000
0000
,
0020
0000
0000
1030
0000
0000
0100
0010
0001
0000
0010
0000
1000
0000
0001
0000
,
0020
0000
0000
0032
0000
0000
0023
0000
0000
0000
0000
0000
0030
0000
0220
0000
,
0000
0000
0330
0000
0000
0000
0010
0100
0010
0000
0100
0000
1000
0000
0010
0000
,
0001
0001
0000
2000
0000
3100
0010
0022
,
0000
0033
0000
0010
0100
0010
0100
2000
,
0000
3010
0100
0020
0000
0000
0000
0030
,
0110
1001
0012
0000
,
0013
0011
2000
0000
,
3100
1010
0002
0000
,
0103
0011
0020
0000
,
0130
0000
0000
0000
0110
0000
0000
0000
1200
0000
0000
0000
0300
0000
1000
0010
,
0001
0001
1000
2000
0000
0000
0000
0000
,
3000
0000
0000
0000
0000
0000
0110
0000
0000
1000
0000
0000
1001
0000
0000
0000
,
0000
0000
0000
0000
0000
0000
0110
0000
0000
0001
0000
0000
1001
0000
0000
0000
,
0000
0000
0000
2002
0000
0000
0000
0000
,
0000
0000
3003
0000
1000
0100
0010
0001
,
0100
1000
0010
0001
1100
0000
0011
0000
,
0001
1000
0001
0100
0000
1100
0000
0101
,
0000
0220
0000
0000
0330
0000
1001
0000
,
1000
0001
1000
0200
0000
0000
0000
0000
,
0300
0000
0010
0000
0000
0100
0010
0000
,
2000
0000
0000
3020
0000
0000
0130
0000
0000
0000
0010
0000
1000
0000
0010
0000
,
0000
2000
0000
0200
0000
0000
0000
0000
,
3300
0100
0010
0100
1000
0000
2000
3001
,
0000
0220
0000
0330
1001
0000
0110
0000
,
0010
1000
0010
0100
0000
1100
0000
0110
,
0000
0011
0000
0000
0101
0000
1010
0000
,
0100
0001
0100
0020
0000
0000
0000
0000
,
0030
0000
1000
0000
1000
0000
0100
0000
1100
0000
0000
1100
0000
0000
0011
0000
,
0000
0000
0001
0000
0001
0000
0010
0000
0101
0000
0000
0101
0000
0000
1010
0000
,
0000
0000
0010
0001
0020
0000
0000
0230
,
0000
0000
0300
0001
0002
0000
1003
0000
,
0010
0100
0000
0220
0000
0000
0000
0000
,
0000
0000
0330
1000
0000
1000
0001
1000
,
0010
1000
0000
0001
0000
0001
1000
0001
,
0100
0001
0000
1000
0000
1000
0010
0010
,
0100
0100
0000
2002
0000
0000
0000
0000
,
0000
0000
3003
1000
0000
1000
0010
1000
,
0100
1000
0000
0001
0000
0001
0100
0001
,
0010
0001
0000
0220
0000
0000
0000
0000
,
0000
0000
0330
1001
,
0001
0010
0100
1000
0000
1100
0000
1001
,
0000
0011
0000
0000
1001
0000
0110
0000
,
1000
0100
0010
0002
0000
0000
0000
0000
,
0003
0000
0001
0000
0000
0100
0010
0000
,
2000
0000
0000
3010
0000
0000
0100
0000
0000
0000
0010
0000
0100
0000
0020
0000
,
0000
2030
0000
3200
0000
0000
0000
0000
,
0300
1000
0001
1000
0001
0000
0100
0010
,
0000
0100
0000
0000
0011
0000
1100
0000
,
0001
0010
0100
1000
0000
0101
0000
0110
,
0000
1010
0000
0000
1010
0000
0101
0000
,
0001
0010
1000
0200
0000
0000
0000
0000
,
0300
0000
0010
0000
0010
0000
0010
0000
1010
0000
0000
1010
0000
0000
0011
0000
,
0000
0000
0100
0000
0100
0000
0100
0000
0011
0000
0000
0011
0000
0000
1010
0000
,
0000
0000
0010
0001
0020
0000
0000
0230
,
0000
0300
0001
0001
1100
0000
1100
0000
,
0010
0010
0010
2002
0000
0000
0000
0000
,
0000
0000
0000
0000
0000
0000
0000
0000
0000
0000
0000
0000
3003
1001
0000
0000
;

//---------------dance-single - ----------------
#NOTES:
     dance-single:
     :
     Beginner:
     2:
     0.100971,0.162077,0.089366,0.000000,0.000000,87.000000,76.000000,11.000000,0.000000,0.000000,0.000000,0.100971,0.162077,0.089366,0.000000,0.000000,87.000000,76.000000,11.000000,0.000000,0.000000,0.000000:
// measure 0
0000
0000
0000
0000
,  // measure 1
0000
0000
0000
0000
,  // measure 2
0000
0000
0000
0000
,  // measure 3
0000
0000
0000
0000
,  // measure 4
0000
0000
0000
0000
,  // measure 5
0000
0000
0000
0000
,  // measure 6
0000
0000
0000
0000
,  // measure 7
0000
0000
0000
0000
,  // measure 8
0000
0000
0001
0000
,  // measure 9
0000
0000
0001
0000
,  // measure 10
0000
0000
1000
0000
,  // measure 11
0000
0000
1000
0000
,  // measure 12
0000
0000
1000
0000
,  // measure 13
0000
0000
1000
0000
,  // measure 14
0000
0000
0001
0000
,  // measure 15
0000
0000
0001
0000
,  // measure 16
0000
0000
0010
0000
,  // measure 17
0000
0000
0110
0000
,  // measure 18
0000
0000
0100
0000
,  // measure 19
0000
0000
0110
0000
,  // measure 20
0000
0000
0010
0000
,  // measure 21
0000
0000
1001
0000
,  // measure 22
0000
0000
0100
0000
,  // measure 23
0000
0000
1001
0000
,  // measure 24
0000
0000
1000
0000
,  // measure 25
0100
0000
0010
0000
,  // measure 26
0001
0000
1000
0000
,  // measure 27
1000
0000
0100
0000
,  // measure 28
0100
0000
0001
0000
,  // measure 29
0001
0000
0010
0000
,  // measure 30
0010
0000
0000
0001
,  // measure 31
0000
0000
0000
0001
,  // measure 32
0000
0000
0000
0001
,  // measure 33
0000
0000
1000
0000
,  // measure 34
0001
0000
0001
0000
,  // measure 35
0001
0000
0010
0000
,  // measure 36
0010
0000
0100
0000
,  // measure 37
0100
0000
1000
0000
,  // measure 38
1000
0000
1001
0000
,  // measure 39
0000
0000
1001
0000
,  // measure 40
0000
0000
1000
0000
,  // measure 41
0000
0000
0001
0000
,  // measure 42
0001
0000
0010
0000
,  // measure 43
0000
0000
0010
0000
,  // measure 44
0000
0000
0010
0000
,  // measure 45
0000
0000
0010
0000
,  // measure 46
0000
0000
0100
0000
,  // measure 47
0000
0000
0100
0000
,  // measure 48
0000
0000
0100
0000
,  // measure 49
0000
0000
0100
0000
,  // measure 50
0000
0000
0000
1001
,  // measure 51
0000
0000
1000
0000
,  // measure 52
0100
0000
0000
0000
,  // measure 53
0000
0000
0010
0000
,  // measure 54
0001
0000
0000
1000
,  // measure 55
0000
0000
0000
1000
,  // measure 56
0000
0000
0000
1000
,  // measure 57
0000
0000
1000
0000
,  // measure 58
0001
0000
1001
0000
,  // measure 59
0000
0000
0001
0000
,  // measure 60
0010
0000
0000
0000
,  // measure 61
1000
0000
0100
0000
,  // measure 62
0000
0000
1001
0000
,  // measure 63
0000
0000
1001
0000
,  // measure 64
0000
0000
0001
0000
,  // measure 65
0010
0000
0100
0000
,  // measure 66
1000
0000
1001
0000
;
