#VERSION:0.83;
#TITLE:IFの踊子;
#SUBTITLE:;
#ARTIST:Lyrical Lily;
#TITLETRANSLIT:;
#SUBTITLETRANSLIT:;
#ARTISTTRANSLIT:;
#GENRE:;
#ORIGIN:;
#TAGS:;
#CREDIT:;
#BANNER:The IF Dancer.png;
#BACKGROUND:The IF Dancer-BG.png;
#PREVIEWVID:;
#JACKET:The IF Dancer-Jacket.png;
#CDIMAGE:;
#DISCIMAGE:;
#LYRICSPATH:;
#CDTITLE:;
#MUSIC:The IF Dancer.ogg;
#OFFSET:0.440000;
#SAMPLESTART:74.562653;
#SAMPLELENGTH:12.000000;
#SELECTABLE:YES;
#BPMS:0.000000=158.000000;
#STOPS:;
#DELAYS:;
#WARPS:;
#TIMESIGNATURES:0.000000=4=4;
#TICKCOUNTS:0.000000=4;
#COMBOS:0.000000=1;
#SPEEDS:0.000000=1.000000=0.000000=0;
#SCROLLS:0.000000=1.000000;
#FAKES:;
#LABELS:0.000000=Song Start;
#BGCHANGES:1.000=The IF Dancer.mp4=1.000=0=0=0=StretchNoLoop====,
99999=-nosongbg-=1.000=0=0=0 // don't automatically add -songbackground-
;
#KEYSOUNDS:;
#ATTACKS:
;

//---------------dance-single - ----------------
#NOTEDATA:;
#CHARTNAME:;
#CHARTHASH:538979338;
#STEPSTYPE:dance-single;
#BANNER:;
#DESCRIPTION:;
#CHARTSTYLE:;
#DIFFICULTY:Beginner;
#METER:2;
#METERF:2.000000;
#RADARVALUES:0.107848,0.188349,0.023110,0.000000,0.000000,98.000000,95.000000,3.000000,0.000000,0.000000,0.000000,0.000000,0.000000,0.000000,0.107848,0.188349,0.023110,0.000000,0.000000,98.000000,95.000000,3.000000,0.000000,0.000000,0.000000,0.000000,0.000000,0.000000;
#CREDIT:;
#NOTES:
// measure 0
0000
0000
0000
0000
,  // measure 1
0000
0000
0000
0000
,  // measure 2
0000
0000
0000
0000
,  // measure 3
0000
0000
0000
0000
,  // measure 4
0000
0000
0000
0000
,  // measure 5
0000
0000
0000
0000
,  // measure 6
0000
0000
0000
0000
,  // measure 7
0000
0000
0000
0000
,  // measure 8
0000
0000
0000
0000
,  // measure 9
1000
0000
0000
0000
,  // measure 10
1000
0000
0000
0000
,  // measure 11
0100
0000
0000
0000
,  // measure 12
0100
0000
0000
0000
,  // measure 13
0010
0000
0000
0000
,  // measure 14
0010
0000
0000
0000
,  // measure 15
0001
0000
0001
0000
,  // measure 16
0001
0000
0000
0000
,  // measure 17
1000
0000
0000
0000
,  // measure 18
0100
0000
0000
0000
,  // measure 19
0010
0000
0000
0000
,  // measure 20
0001
0000
0000
0000
,  // measure 21
1000
0000
0000
0000
,  // measure 22
0100
0000
0000
0000
,  // measure 23
0011
0000
0000
0000
,  // measure 24
0000
0000
0000
0000
,  // measure 25
0001
0000
0001
0000
,  // measure 26
1000
0000
0000
0000
,  // measure 27
1000
0000
1000
0000
,  // measure 28
0001
0000
0000
0000
,  // measure 29
0001
0000
0001
0000
,  // measure 30
1000
0000
0000
0000
,  // measure 31
1000
0000
1000
0000
,  // measure 32
0001
0000
0001
0000
,  // measure 33
0100
0000
0100
0000
,  // measure 34
0010
0000
0000
0000
,  // measure 35
0010
0000
0010
0000
,  // measure 36
0100
0000
0000
0000
,  // measure 37
0100
0000
0100
0000
,  // measure 38
0010
0000
0010
0000
,  // measure 39
1001
0000
0000
0000
,  // measure 40
0000
0000
0000
0000
,  // measure 41
0000
0000
0000
0000
,  // measure 42
1000
0000
0000
0000
,  // measure 43
1000
0000
0000
0000
,  // measure 44
0100
0000
0000
0000
,  // measure 45
0100
0000
0000
0000
,  // measure 46
0010
0000
0000
0000
,  // measure 47
0010
0000
0000
0000
,  // measure 48
0001
0000
0000
0000
,  // measure 49
1001
0000
0000
0000
,  // measure 50
1000
0000
0000
1000
,  // measure 51
0000
0000
0000
0001
,  // measure 52
0000
0000
0000
1000
,  // measure 53
0000
0000
0000
0001
,  // measure 54
0000
0000
0000
1000
,  // measure 55
0000
0000
0000
0001
,  // measure 56
0000
0000
0000
0000
,  // measure 57
0000
0000
0000
0000
,  // measure 58
1000
0000
0001
0000
,  // measure 59
1000
0000
0000
0000
,  // measure 60
0001
0000
1000
0000
,  // measure 61
0001
0000
0000
0000
,  // measure 62
1000
0000
0001
0000
,  // measure 63
1000
0000
0000
0000
,  // measure 64
0010
0000
0100
0000
,  // measure 65
0010
0000
0000
0000
,  // measure 66
1000
0000
1000
0000
,  // measure 67
1000
0000
0000
0000
,  // measure 68
0001
0000
0001
0000
,  // measure 69
0001
0000
0000
0000
,  // measure 70
1000
0000
0001
0000
,  // measure 71
1000
0000
0001
0000
,  // measure 72
0100
0000
0010
0000
,  // measure 73
0100
0000
0010
0000
,  // measure 74
0100
0000
0100
0000
,  // measure 75
0100
0000
0000
0000
,  // measure 76
0010
0000
0010
0000
,  // measure 77
0010
0000
0000
0000
,  // measure 78
0100
0000
0010
0000
,  // measure 79
0100
0000
0010
0000
,  // measure 80
0001
0000
1000
0000
,  // measure 81
0001
0000
1000
0000
;

//---------------dance-single - ----------------
#NOTEDATA:;
#CHARTNAME:;
#CHARTHASH:805965104;
#STEPSTYPE:dance-single;
#BANNER:;
#DESCRIPTION:;
#CHARTSTYLE:;
#DIFFICULTY:Easy;
#METER:4;
#METERF:4.000000;
#RADARVALUES:0.000000,0.000000,0.000000,0.000000,0.000000,0.000000,0.000000,0.000000,0.000000,0.000000,0.000000,0.000000,0.000000,0.000000,0.000000,0.000000,0.000000,0.000000,0.000000,0.000000,0.000000,0.000000,0.000000,0.000000,0.000000,0.000000,0.000000,0.000000;
#CREDIT:;
#NOTES:
0000
0000
0000
0000
,
0000
0000
0000
0000
,
0000
0000
0000
0000
,
0000
0000
0000
0000
,
0000
0000
0000
0000
,
0000
0000
0000
0000
,
0000
0000
0000
0000
,
0000
0000
0000
0000
,
0000
0000
0001
0001
,
0001
0000
1000
1000
,
1000
0000
0001
0001
,
0001
0000
1000
1000
,
1000
0000
0010
0010
,
0010
0000
0100
0100
,
0100
0000
0010
0010
,
0010
0000
0010
0000
,
0100
0000
1000
1000
,
1000
0000
0001
0001
,
0001
0000
1000
1000
,
1000
0000
0001
0001
,
0001
0000
0100
0100
,
0100
0000
0010
0010
,
0010
0000
0100
0100
,
0100
0000
0010
0000
,
0010
0000
0000
0000
,
0001
0001
0001
0001
,
0001
0000
0000
0000
,
1000
1000
1000
1000
,
1000
0000
0000
0000
,
0001
0001
0001
0001
,
0001
0000
0000
0000
,
1000
0000
1000
0000
,
1000
0000
1000
0000
,
0010
0010
0010
0010
,
0010
0000
0000
0000
,
0100
0100
0100
0100
,
0100
0000
0000
0000
,
0010
0010
0010
0010
,
0010
0000
0000
0000
,
0100
0000
0100
0000
,
0100
0000
0000
0000
,
0000
0000
0000
0000
,
1001
0000
0000
0000
,
1001
0000
0000
0000
,
0110
0000
0000
0000
,
0110
0000
0000
0000
,
1001
0000
0000
0000
,
0110
0000
0000
0000
,
1001
0000
0000
0000
,
0110
0000
0000
0000
,
0001
0000
0000
1001
,
1000
0000
0000
1001
,
0001
0000
0000
0110
,
1000
0000
0000
0110
,
0010
0000
0000
1001
,
0100
0000
0000
1001
,
0010
0000
0000
0000
,
0110
0000
0000
0000
,
0001
0001
0001
0001
,
1000
1000
1000
1000
,
0001
0001
0001
0001
,
1000
1000
1000
1000
,
0010
0010
0010
0010
,
0100
0100
0100
0100
,
1001
0000
0000
0000
,
1001
0000
0000
0000
,
1000
1000
1000
1000
,
1000
0000
0000
0000
,
0100
0100
0100
0100
,
0100
0000
0000
0000
,
0010
0010
0010
0010
,
0010
0000
0000
0000
,
0001
0000
0001
0000
,
0001
0000
0001
0000
,
0001
0001
0001
0001
,
0001
0000
0000
0000
,
0010
0010
0010
0010
,
0010
0000
0000
0000
,
0100
0100
0100
0100
,
0100
0000
0000
0000
,
1000
0000
1000
0000
,
1000
0000
1000
0000
,
1001
0000
0000
0000
;

//---------------dance-single - ----------------
#NOTEDATA:;
#CHARTNAME:;
#CHARTHASH:808464688;
#STEPSTYPE:dance-single;
#BANNER:;
#DESCRIPTION:;
#CHARTSTYLE:;
#DIFFICULTY:Medium;
#METER:8;
#METERF:8.000000;
#RADARVALUES:0.000000,0.000000,0.000000,0.000000,0.000000,0.000000,0.000000,0.000000,0.000000,0.000000,0.000000,0.000000,0.000000,0.000000,0.000000,0.000000,0.000000,0.000000,0.000000,0.000000,0.000000,0.000000,0.000000,0.000000,0.000000,0.000000,0.000000,0.000000;
#CREDIT:;
#NOTES:
0000
0000
0000
0000
,
0000
0000
0000
0000
,
0000
0000
0000
0000
,
0000
0000
0000
0000
,
0000
0000
0000
0000
,
0000
0000
0000
0000
,
0000
0000
0000
0000
,
0000
0000
0000
0000
,
0000
0000
0000
1000
1000
1000
0100
0010
,
0001
0000
0000
0001
0001
0001
0010
0100
,
1000
0000
0000
1000
1000
1000
0100
0010
,
0001
0000
0000
0001
0001
0001
1000
0001
,
0000
0000
0000
0100
0100
0100
1000
0001
,
0010
0000
0000
0010
0010
0010
0001
1000
,
0100
0000
0000
0100
0100
0100
0010
0010
,
2000
0000
0000
3002
0000
0000
2000
0000
,
0000
0000
3003
0001
0001
0001
0010
0100
,
1000
0000
0000
0001
0001
0001
1000
0100
,
0010
0000
0000
0001
0001
0001
0010
0100
,
1000
0000
0000
0001
0001
0001
1000
0001
,
0000
0000
0000
1000
1000
1000
0100
0010
,
0001
0000
0000
1000
1000
1000
0001
0010
,
0100
0000
0000
0010
0010
0010
0100
0010
,
0002
0000
0000
2003
0000
0000
0002
0000
,
0000
3003
0001
0001
,
2000
3002
2003
3002
,
1003
0000
0010
0010
,
0020
2030
3020
2030
,
3010
0000
1000
1000
,
0002
2003
3002
2003
,
3002
0000
1003
0000
,
1000
1000
0001
0001
,
0010
0010
1000
0000
,
0020
0230
0320
0230
,
0310
0000
0100
0100
,
2000
3200
2300
3200
,
1300
0000
0001
1000
,
0200
2300
3020
0032
,
0203
0000
0310
0000
,
0200
0000
0000
0302
0000
0000
0023
0000
,
0000
0000
0000
0030
,
0000
0000
0000
0000
,
1100
0000
0000
0101
0000
0000
0000
0000
,
1100
0000
0000
1010
0000
0000
0000
0000
,
0101
0000
0000
1100
0000
0000
0000
0000
,
0101
0000
0000
0011
0000
0000
0000
0000
,
1010
0000
0000
0011
0000
0000
0000
0000
,
1001
0000
0000
0110
0000
0000
0000
0000
,
0020
0000
0000
0032
0000
0000
0203
0000
,
0000
0300
0001
0001
,
1000
0000
0000
1000
0000
0000
1000
0000
0000
1000
0000
0000
1001
0000
0000
0000
,
0001
0000
0000
0001
0000
0000
0001
0000
0000
0001
0000
0000
1001
0000
0000
0000
,
1000
0000
0000
1000
0000
0000
1000
0000
0000
1000
0000
0000
1010
0000
0000
0000
,
0001
0000
0000
0001
0000
0000
0001
0000
0000
0001
0000
0000
0101
0000
0000
0000
,
1000
0000
0000
1000
0000
0000
1000
0000
0000
1000
0000
0000
1100
0000
0000
0000
,
0001
0000
0000
0001
0000
0000
0001
0000
0000
0001
0000
0000
0011
0000
0000
0000
,
2000
0000
0000
3200
0000
0000
2300
0000
,
0000
3100
0000
0000
,
0100
0100
0100
1001
,
0010
0010
0010
0110
,
1000
1000
1000
1001
,
0001
0001
0001
0110
,
0001
0001
0010
0010
1000
1000
0010
0010
,
0001
0001
0100
0100
1000
1000
0100
0100
,
0020
0000
0000
0032
0000
0000
0023
0000
,
0000
0130
0010
0010
,
2000
3200
2300
3100
,
1100
0000
0010
0010
,
0200
0320
0230
0310
,
0110
0000
0100
0100
,
0020
0032
0023
0032
,
0013
0000
0011
0000
,
1000
1000
0001
0001
,
2000
3002
2003
3000
,
0002
0023
0032
0013
,
0011
0000
0001
0001
,
0020
0230
0320
0130
,
0110
0000
1000
1000
,
0200
2300
3200
2300
,
3100
0000
1100
0000
,
0020
0000
0000
0032
0000
0000
0203
0000
,
0000
0000
0000
0000
0000
0000
0000
0300
,
1001
0000
0000
0000
,
0001
0000
0000
0000
,
0010
0000
0000
1000
0000
0000
0100
0000
;

//---------------dance-single - ----------------
#NOTEDATA:;
#CHARTNAME:;
#CHARTHASH:808464650;
#STEPSTYPE:dance-single;
#BANNER:;
#DESCRIPTION:;
#CHARTSTYLE:;
#DIFFICULTY:Hard;
#METER:13;
#METERF:13.000000;
#RADARVALUES:0.000000,0.000000,0.000000,0.000000,0.000000,0.000000,0.000000,0.000000,0.000000,0.000000,0.000000,0.000000,0.000000,0.000000,0.000000,0.000000,0.000000,0.000000,0.000000,0.000000,0.000000,0.000000,0.000000,0.000000,0.000000,0.000000,0.000000,0.000000;
#CREDIT:;
#NOTES:
0000
0000
0000
0000
,
0000
0000
0000
0000
,
0000
0000
0000
0000
,
0000
0000
0000
0000
,
0000
0000
0000
0000
,
0000
0000
0000
0000
,
0000
0000
0000
0000
,
0020
0000
0000
2030
0000
0000
0200
0000
,
0000
3300
0000
0010
1000
0100
0001
0001
,
1000
0000
0000
0010
0001
0100
1000
1000
,
0001
0000
0000
0100
1000
0010
0001
0001
,
1000
0000
0000
0100
0001
0010
1000
0010
,
0000
0000
0000
1000
0010
0001
1000
1000
,
0001
0000
0000
0001
0010
1000
0001
0001
,
1000
0000
0000
1000
0001
1000
0100
0001
,
2000
0000
0000
3020
0000
0000
0002
0000
,
0000
0000
0033
1000
0100
0001
0010
0010
,
1100
0000
0000
0001
0100
1000
0010
0010
,
1100
0000
0000
0001
1000
0001
0100
0100
,
1010
0000
0000
1000
0001
1000
0100
0200
,
0000
0000
0300
0010
0001
0100
1000
1000
,
0011
0000
0000
0010
1000
0100
0001
0001
,
1010
0000
0000
0010
0100
0010
0001
0001
,
2000
0000
0000
3002
0000
0000
2000
0000
,
0000
0000
3003
0010
0100
1000
0001
1000
,
0002
0203
2300
3001
,
0011
0000
0000
0100
0010
0001
1000
0001
,
2000
3200
0302
1003
,
1010
0000
0000
0001
0010
0100
0001
0001
,
0020
2030
3200
0310
,
2001
0000
3001
0000
,
2000
0000
0000
3001
0000
1000
0000
0100
,
0000
0200
0000
0020
0000
0000
0000
0330
,
0002
0023
2030
3001
,
0011
0000
0000
0001
0100
1000
0001
1000
,
2000
3020
0032
1003
,
1010
0000
0000
1000
0100
0001
1000
0001
,
0020
0032
0203
0310
,
0210
0000
0310
0000
,
2100
0000
3000
0210
0000
0300
0021
0000
,
0000
0000
0000
0130
,
0000
0000
0000
0200
,
1300
0000
0000
0101
0000
0000
1100
0000
0000
0101
0000
0000
0001
0000
0001
0000
,
0011
0000
0000
1010
0000
0000
0011
0000
0000
1010
0000
0000
1000
0000
1000
0000
,
1010
0000
0000
0011
0000
0000
1010
0000
0000
0011
0000
0000
0001
0000
0001
0000
,
0101
0000
0000
1100
0000
0000
0101
0000
0000
1100
0000
0000
1000
0000
1000
0000
,
0011
0000
0000
0101
0000
0000
0011
0000
0000
0101
0000
0000
0001
0000
0001
0000
,
1100
0000
0000
1010
0000
0000
1100
0000
0000
1010
0000
0000
1000
0000
1000
0000
,
0200
0000
0000
2300
0000
0000
3020
0000
,
0000
0000
0000
1030
0001
1000
0001
1000
,
0001
0000
0000
0010
0000
0000
0001
0000
0000
0010
0000
0000
1100
0000
0000
0000
,
1000
0000
0000
0010
0000
0000
1000
0000
0000
0010
0000
0000
0101
0000
0000
0000
,
0001
0000
0000
0100
0000
0000
0001
0000
0000
0100
0000
0000
0011
0000
0000
0000
,
1000
0000
0000
0100
0000
0000
1000
0000
0000
0100
0000
0000
1010
0000
0000
0000
,
0100
0000
0000
1000
0000
0000
0100
0000
0000
1000
0000
0000
0101
0000
0000
0000
,
0100
0000
0000
0001
0000
0000
0100
0000
0000
0001
0000
0000
1100
0000
0000
0000
,
0021
0000
0030
0210
0000
0300
2100
0000
,
0000
0000
3001
0100
0010
0100
0010
0100
,
0001
0000
0010
0000
0100
0000
0001
0100
,
1000
0000
0010
0000
0100
0000
1000
0100
,
0001
0000
0100
0000
0010
0000
0001
0010
,
1000
0000
0100
0000
0010
0000
1000
0010
,
1000
0001
1000
0001
1000
0001
0010
0100
,
0001
1000
0001
1000
0001
1000
0100
0010
,
1020
0000
0030
1002
0000
0003
0102
0000
,
0000
0000
1003
0001
1000
0001
1000
0001
,
0020
2030
3200
0301
,
1001
0000
0000
0100
0010
0100
0010
0100
,
0020
0032
0203
1300
,
1001
0000
0000
0010
0001
0010
0001
0010
,
0002
0023
2030
3010
,
0220
0000
0000
0330
1001
0000
0000
0000
,
2000
0000
3010
0200
0000
0301
0000
1100
,
0000
1010
0000
0022
0000
0000
0033
0000
,
0020
0032
0203
0301
,
1001
0000
0000
1000
0001
1000
0001
1000
,
0020
2030
3200
1300
,
1001
0000
0000
0010
0100
0010
0100
0010
,
0002
0023
2030
3100
,
0110
0000
1001
0000
,
0202
0000
0303
2002
0000
3003
2020
0000
,
0000
0000
0000
0000
0000
0000
0000
3030
,
0001
0000
0000
0010
0000
0000
0001
0000
0000
0010
0000
0000
0001
0000
0001
0000
,
0100
0000
0000
1000
0000
0000
0100
0000
0000
1000
0000
0000
1000
0000
1000
0000
,
0020
0000
0000
2030
0000
0000
3100
0000
;
