#TITLE:汚れっちまった悲しみの色;
#SUBTITLE:;
#ARTIST:Lyrical Lily;
#TITLETRANSLIT:The Color of Tainted Sorrow;
#SUBTITLETRANSLIT:;
#ARTISTTRANSLIT:;
#GENRE:;
#CREDIT:;
#BANNER:The Color of Tainted Sorrow.png;
#BACKGROUND:The Color of Tainted Sorrow-bg.png;
#LYRICSPATH:;
#CDTITLE:;
#MUSIC:The Color of Tainted Sorrow.ogg;
#OFFSET:-0.080000;
#SAMPLESTART:78.837669;
#SAMPLELENGTH:12.000000;
#SELECTABLE:YES;
#BPMS:0.000000=155.000000
;
#STOPS:
;
#BGCHANGES:;
#KEYSOUNDS:;
#ATTACKS:;

//---------------dance-single - ----------------
#NOTES:
     dance-single:
     :
     Easy:
     5:
     0.000000,0.000000,0.000000,0.000000,0.000000,0.000000,0.000000,0.000000,0.000000,0.000000,0.000000,0.000000,0.000000,0.000000,0.000000,0.000000,0.000000,0.000000,0.000000,0.000000,0.000000,0.000000:
0000
0000
0000
0000
,
0000
0000
0000
0000
,
0000
0000
0000
0000
,
0000
0000
0000
0000
,
0000
0000
0000
0000
,
0000
0000
0000
0000
,
0000
1000
0000
0000
,
0000
0100
0000
0000
,
0000
0010
0000
0000
,
0000
0002
0000
0000
,
0000
0000
0000
0000
,
0003
0001
0001
0011
,
0000
0100
0100
0110
,
0000
1000
1000
1100
,
0000
0001
0100
1000
,
1001
1000
1000
1100
,
0000
0010
0010
0110
,
0000
0001
0000
0001
,
0000
0011
0000
0011
,
0000
0001
0000
0000
,
0000
2200
0000
3300
,
0000
0100
0100
0010
,
0000
1000
1000
0010
,
0000
0001
0001
0010
,
0000
0010
0010
0110
,
0000
0010
0010
0100
,
0000
0001
0001
0100
,
0000
1000
1000
0100
,
0000
0110
0000
0000
,
0000
0001
1000
0001
,
1000
0001
0100
0001
,
0100
0001
0010
0001
,
0010
1001
0000
0000
,
0000
0010
0000
0010
,
0000
0010
0000
0010
,
0000
1000
0001
0001
,
0001
1000
0000
0100
,
0000
0022
0000
0000
,
0000
0000
0000
0033
,
0000
0220
0000
0000
,
0000
0000
0000
0330
,
0000
2200
0000
0000
,
0000
0000
0000
3300
,
0000
1000
1000
1000
,
0000
0100
0100
0100
,
0000
0010
0010
0010
,
0000
0001
0001
0001
,
0000
0010
0000
0020
,
0000
0000
0000
0030
,
0000
2002
0000
0000
,
0000
0000
3003
0100
,
0000
0001
0000
0001
,
0000
1000
0000
1000
,
0000
0001
0000
0001
,
0000
1000
0000
1000
,
0000
0100
0010
0100
,
0000
0010
0100
0010
,
0000
1000
0100
0010
,
0000
0100
0010
0001
,
0000
0010
0000
0010
,
0000
0100
0000
0100
,
0000
0010
0000
0010
,
0000
0100
0000
0100
,
0000
1000
0001
1000
,
0000
0001
1000
0001
,
0000
1000
0100
0001
,
0000
1000
0010
0001
,
0000
0002
0000
0000
,
0000
0000
0000
0003
,
0000
2000
0000
0000
,
0000
0000
0000
3000
,
0000
1000
0001
1000
,
0001
1000
0100
0010
,
0001
0100
0010
0100
,
0010
0001
0010
0100
,
1000
0001
0010
0001
,
0010
0100
1000
0100
,
1000
0000
0110
0000
,
0000
0000
0000
0000
,
0000
2002
0000
0000
,
0000
0000
0000
0000
,
0000
0000
0000
3003
;

//---------------dance-single - ----------------
#NOTES:
     dance-single:
     :
     Medium:
     8:
     0.000000,0.000000,0.000000,0.000000,0.000000,0.000000,0.000000,0.000000,0.000000,0.000000,0.000000,0.000000,0.000000,0.000000,0.000000,0.000000,0.000000,0.000000,0.000000,0.000000,0.000000,0.000000:
0000
0000
0000
0000
,
0000
0000
0000
0000
,
0000
0000
0000
0000
,
0000
0000
0000
0000
,
0000
0000
0000
0000
,
0000
0000
0000
0000
,
0000
0010
0010
0100
,
0000
0001
0001
1000
,
0000
0000
1000
0000
0001
1000
0001
0000
,
0000
0000
0100
0000
0010
0100
0010
0000
,
0000
0000
0000
0000
,
0000
0000
0010
0000
0010
0000
0001
1000
,
0100
0000
0100
0000
0100
0000
1000
0001
,
0010
0000
0001
0000
0001
0000
0010
0100
,
1000
0000
1000
0000
1000
0000
0100
0010
,
0001
0000
0010
0000
0010
0000
1000
0001
,
0100
0000
0100
0000
0100
0000
0001
1000
,
0010
0011
0000
1100
,
0000
1010
0000
0101
,
0000
0000
0001
0000
0000
0010
0000
0000
,
0100
1000
0000
0000
,
0000
0001
0010
0100
,
0000
0010
0100
1000
,
0000
1000
0100
0010
,
0000
0100
0010
0001
,
0000
0010
1000
0100
,
0000
0100
0001
0010
,
0000
0010
0001
0100
,
0000
0100
1000
0010
,
0000
0010
1000
0010
,
0100
0001
0100
0010
,
0001
0010
0100
0001
,
1000
0000
0010
0000
0000
0000
0000
1000
,
1000
0001
0000
0001
1000
1000
0000
1000
,
1000
0001
0000
0000
0000
0000
0000
0010
,
0010
0000
0000
0000
,
0000
0000
1000
0000
0000
0110
0000
0000
,
0001
0000
0010
0010
0000
0000
0000
0000
,
0000
0001
0000
0010
0000
0100
0000
1000
,
0000
0000
0100
0100
0000
0000
0000
0000
,
0000
1000
0000
0100
0000
0010
0000
0001
,
0000
0000
1000
1000
0000
0000
0000
0000
,
0000
0100
0000
1000
0000
0010
0000
0001
,
0000
1000
1000
0100
,
0000
0100
0100
0010
,
0000
0010
0010
0001
,
0000
0000
0001
1000
,
0001
0000
0010
0000
0000
0100
0200
0000
,
0000
0000
0000
0300
,
0010
0020
0000
0000
,
0000
0000
0000
0000
0000
0000
0130
1000
,
0100
1000
0000
0001
0010
0001
0000
0100
,
1000
0100
0000
0010
0001
0010
0000
1000
,
0001
1000
0000
0100
0010
0100
0000
0001
,
1000
0001
0000
0010
0100
0010
0000
0000
,
0000
1000
0001
0001
,
0000
0001
1000
1000
,
0000
1000
0100
0010
,
0000
0000
0001
0000
0010
0000
0100
1000
,
0100
1000
0000
0100
0010
0100
0000
0010
,
0001
0010
0000
0001
1000
0001
0000
0001
,
0010
0001
0000
0010
0100
0010
0000
0100
,
1000
0100
0000
1000
0001
1000
0000
0000
,
0000
0100
1000
1000
,
0000
0001
0001
0010
,
0000
0100
0001
0001
,
0000
1000
1000
0010
,
0001
2000
0000
0000
,
0010
3010
0000
0000
0000
0000
0000
0000
,
0000
0001
0002
0000
0000
0000
0000
0000
,
0100
0103
0000
0000
0000
0000
0000
0000
,
0000
0000
0010
0000
0010
0000
0000
1000
,
0000
1000
0000
0000
0000
0001
0000
0001
,
0000
0100
0110
0110
,
0000
0011
0000
0011
0000
0011
0000
0011
,
0000
1001
0000
0000
1000
0000
1000
0000
,
0100
0100
0010
0010
,
0001
0001
1001
1001
,
0000
1100
0000
1100
0000
1100
0000
1001
,
0000
2002
0000
0000
0000
0000
0000
0000
,
0000
0000
0000
0000
,
3003
0000
0000
0000
;

//---------------dance-single - ----------------
#NOTES:
     dance-single:
     :
     Hard:
     11:
     0.000000,0.000000,0.000000,0.000000,0.000000,0.000000,0.000000,0.000000,0.000000,0.000000,0.000000,0.000000,0.000000,0.000000,0.000000,0.000000,0.000000,0.000000,0.000000,0.000000,0.000000,0.000000:
0000
0000
0000
0000
,
0000
0000
0000
0000
,
0000
0000
0000
0000
,
0000
0000
0000
0000
,
0000
0000
0000
0000
,
0000
0000
0000
0000
,
0000
0010
0010
0010
,
0010
0000
0001
0100
0001
0020
0000
0000
,
0030
0100
1000
0100
0010
0001
0001
0000
,
0000
0010
0001
0010
0100
1000
2000
0000
,
0000
0000
0000
0000
0000
0000
0000
3000
,
0000
0000
0110
0000
0110
0000
0011
1000
,
0100
0010
0000
0010
0000
0100
0100
0000
,
0011
0000
1001
0000
1001
0000
0101
0010
,
1000
0001
0000
0001
0100
0100
0010
0010
,
0001
0001
0110
0000
0110
0000
1100
0001
,
0010
0100
0000
0100
1000
0010
0100
0010
,
0001
0000
0010
0100
1000
0100
0000
1000
,
0100
0010
0000
0100
0010
0001
0000
1000
,
0001
0000
0012
0000
0013
0120
0000
0130
,
1200
0000
2300
0000
0000
0000
3000
0010
,
0010
0010
0100
1000
0010
0001
1000
0000
,
0000
0000
0000
0100
0000
0100
0001
1000
,
0100
0010
1000
0100
0000
0002
0000
0000
,
0003
0010
1000
0100
0000
0002
0000
0000
,
0003
0010
0001
1000
0001
0010
0100
0000
,
0000
0000
0000
0100
0100
0010
0001
0010
,
1000
0001
0020
0000
0000
0000
0000
0000
,
0130
0011
0000
0002
,
0203
0320
2030
3020
,
0230
0302
0203
0320
,
0032
0023
0230
0302
,
2003
0000
3010
0000
0000
0000
0000
0100
,
0100
0010
0000
0001
0001
1000
0000
0100
,
0100
0002
0000
0023
0000
1030
0000
0001
,
0002
0000
1000
1000
0003
1000
0000
0100
,
0010
0100
0010
0010
0010
0001
0001
0001
,
1000
1000
1100
0100
1000
0100
0001
1000
,
0010
0011
0000
1100
0000
0101
0000
0110
,
0000
0000
0001
0001
1000
0100
0001
1000
,
0100
1010
0000
0101
0000
1100
0000
1001
,
0000
0000
0001
0001
1000
0100
0010
0100
,
0100
1001
0000
0110
0000
0101
0000
0011
,
0000
0010
2000
0000
0000
3100
0100
0000
,
0000
0000
0002
0000
0000
0103
0100
0000
,
0000
0000
2000
0000
0000
3010
0020
0000
,
0000
0031
0020
0230
,
2300
0000
3002
0000
0000
0013
0020
0100
,
0100
0100
0100
0001
0001
0001
0031
0000
,
1100
0022
0000
0000
,
0000
0000
0000
0000
0033
0000
0110
1000
,
0010
0001
0000
1000
0100
0001
0000
0001
,
0010
1000
0000
0001
0100
1000
0000
1000
,
0100
0010
0000
0100
0010
0001
0000
0020
,
0000
1030
0000
0001
0010
0100
0000
0010
,
0001
0010
0000
0100
0001
0010
0100
0010
,
1000
0100
1000
0010
0001
0020
0000
0030
,
0000
0010
0010
0001
0010
0001
0001
0000
,
0000
0001
0100
0001
1000
0010
0001
1000
,
0100
0010
0000
0001
0010
0100
0000
1000
,
0100
0001
0000
0001
0010
1000
0000
1000
,
0010
0010
0000
0100
0001
0001
0000
0010
,
0010
1000
0000
0001
0001
0100
0000
0010
,
0001
0001
0000
0100
0001
0010
0100
1000
,
0100
0010
0001
0010
0100
0200
0000
0000
,
0300
0010
0010
0001
0010
0100
1000
0000
,
0000
0001
0100
0001
0100
0100
0010
0000
,
0020
0230
0000
0300
,
1001
2001
0000
0000
0000
0000
0000
0000
,
3000
0011
2200
0000
0000
0000
3300
0000
,
0001
2000
0000
0000
0000
0000
0000
0000
,
3010
0000
0100
0100
0100
0100
0000
1010
,
0000
0101
0000
0000
0000
0011
0000
1100
,
0010
0100
0010
0000
0011
0000
0011
0000
,
0000
1001
0000
1001
0000
1100
0000
0011
,
0000
0110
1000
0100
1000
0100
0001
0010
,
0001
0010
1000
0100
0010
0001
0100
0010
,
0100
0010
0000
0000
1010
0000
0101
0000
,
0000
1001
0000
0011
0000
0110
0000
1100
,
0000
2002
0000
0000
0000
0000
0000
0000
,
0000
0000
0000
0000
,
3003
0000
0000
0000
;

//---------------dance-single - ----------------
#NOTES:
     dance-single:
     :
     Beginner:
     1:
     0.100437,0.187811,0.078995,0.000000,0.000000,89.000000,79.000000,10.000000,0.000000,0.000000,0.000000,0.100437,0.187811,0.078995,0.000000,0.000000,89.000000,79.000000,10.000000,0.000000,0.000000,0.000000:
// measure 0
0000
0000
0000
0000
,  // measure 1
0000
0000
0000
0000
,  // measure 2
0000
0000
0000
0000
,  // measure 3
0000
0000
0000
0000
,  // measure 4
0000
0000
0000
0000
,  // measure 5
0000
0000
0000
0000
,  // measure 6
0000
1000
0000
0000
,  // measure 7
0000
1000
0000
0000
,  // measure 8
0000
0001
0000
0000
,  // measure 9
0000
0001
0000
0000
,  // measure 10
0000
0000
0000
0000
,  // measure 11
0000
0100
0000
0100
,  // measure 12
0000
0010
0000
0010
,  // measure 13
0000
0100
0000
0100
,  // measure 14
0000
1000
0000
0001
,  // measure 15
0000
0010
0000
0010
,  // measure 16
0000
0100
0000
0100
,  // measure 17
0000
1000
0000
0000
,  // measure 18
0000
0001
0000
0000
,  // measure 19
0000
1001
0000
0000
,  // measure 20
0000
0000
0000
0000
,  // measure 21
0000
0100
0000
0000
,  // measure 22
0000
1000
0000
0000
,  // measure 23
0000
0001
0000
0000
,  // measure 24
0000
0010
0000
0000
,  // measure 25
0000
0010
0000
0000
,  // measure 26
0000
0001
0000
0000
,  // measure 27
0000
1000
0000
0000
,  // measure 28
0000
0110
0000
0000
,  // measure 29
0000
0001
0000
0000
,  // measure 30
0000
1000
0000
0000
,  // measure 31
0000
0010
0000
0000
,  // measure 32
0000
0110
0000
0000
,  // measure 33
0000
0010
0000
0010
,  // measure 34
0000
0010
0000
0010
,  // measure 35
0000
0100
0000
0100
,  // measure 36
0000
0100
0000
0100
,  // measure 37
0000
0011
0000
0000
,  // measure 38
0000
0000
0000
0000
,  // measure 39
0000
0110
0000
0000
,  // measure 40
0000
0000
0000
0000
,  // measure 41
0000
1100
0000
0000
,  // measure 42
0000
0000
0000
0000
,  // measure 43
0000
1000
0000
0000
,  // measure 44
0000
0100
0000
0000
,  // measure 45
0000
0010
0000
0000
,  // measure 46
0000
0001
0000
0000
,  // measure 47
0000
0010
0000
0000
,  // measure 48
0000
0000
0000
0000
,  // measure 49
0000
0001
0000
0000
,  // measure 50
0000
0000
0000
0100
,  // measure 51
0000
0001
0000
0000
,  // measure 52
0000
1000
0000
0000
,  // measure 53
0000
0001
0000
0000
,  // measure 54
0000
1000
0000
0000
,  // measure 55
0000
0100
0000
0000
,  // measure 56
0000
0010
0000
0000
,  // measure 57
0000
0001
0000
0000
,  // measure 58
0000
0001
0000
0000
,  // measure 59
0000
0010
0000
0000
,  // measure 60
0000
0100
0000
0000
,  // measure 61
0000
0010
0000
0000
,  // measure 62
0000
0100
0000
0000
,  // measure 63
0000
1000
0000
0000
,  // measure 64
0000
0001
0000
0000
,  // measure 65
0000
1000
0000
0000
,  // measure 66
0000
0001
0000
0000
,  // measure 67
0000
0001
0000
0000
,  // measure 68
0000
0000
0000
0000
,  // measure 69
0000
1000
0000
0000
,  // measure 70
0000
0000
0000
0000
,  // measure 71
0000
1000
0000
0001
,  // measure 72
0000
1000
0000
0001
,  // measure 73
0000
0110
0000
0000
,  // measure 74
0000
0110
0000
0000
,  // measure 75
0000
0100
0000
0010
,  // measure 76
0000
0100
0000
0010
,  // measure 77
0000
1001
0000
0000
,  // measure 78
0000
0000
0000
0000
,  // measure 79
0000
0110
0000
0000
;
