#VERSION:0.83;
#TITLE:Synchronicity;
#SUBTITLE:;
#ARTIST:UniChOrd;
#TITLETRANSLIT:;
#SUBTITLETRANSLIT:;
#ARTISTTRANSLIT:;
#GENRE:;
#ORIGIN:;
#TAGS:;
#CREDIT:;
#BANNER:Synchronicity.png;
#BACKGROUND:Synchronicity-BG.png;
#PREVIEWVID:;
#JACKET:Synchronicity-Jacket.png;
#CDIMAGE:;
#DISCIMAGE:;
#LYRICSPATH:;
#CDTITLE:;
#MUSIC:Synchronicity.ogg;
#OFFSET:0.260000;
#SAMPLESTART:94.463112;
#SAMPLELENGTH:12.000000;
#SELECTABLE:YES;
#BPMS:0.000000=128.000000;
#STOPS:;
#DELAYS:;
#WARPS:;
#TIMESIGNATURES:0.000000=4=4;
#TICKCOUNTS:0.000000=4;
#COMBOS:0.000000=1;
#SPEEDS:0.000000=1.000000=0.000000=0;
#SCROLLS:0.000000=1.000000;
#FAKES:;
#LABELS:0.000000=Song Start;
#BGCHANGES:0.500=Synchronicity.mp4=1.000=0=0=0=StretchNoLoop====,
99999=-nosongbg-=1.000=0=0=0 // don't automatically add -songbackground-
;
#KEYSOUNDS:;
#ATTACKS:
;

//---------------dance-single - ----------------
#NOTEDATA:;
#CHARTNAME:;
#CHARTHASH:738856240;
#STEPSTYPE:dance-single;
#BANNER:;
#DESCRIPTION:;
#CHARTSTYLE:;
#DIFFICULTY:Beginner;
#METER:2;
#METERF:2.000000;
#RADARVALUES:0.088465,0.149241,0.115595,0.000000,0.000000,75.000000,61.000000,14.000000,0.000000,0.000000,0.000000,0.000000,0.000000,0.000000,0.088465,0.149241,0.115595,0.000000,0.000000,75.000000,61.000000,14.000000,0.000000,0.000000,0.000000,0.000000,0.000000,0.000000;
#CREDIT:;
#NOTES:
// measure 0
0000
0000
0000
0000
,  // measure 1
0000
0000
0000
0000
,  // measure 2
0000
0000
0000
0000
,  // measure 3
0000
0000
0000
0000
,  // measure 4
0000
0000
0000
0000
,  // measure 5
0000
0000
0000
0000
,  // measure 6
0000
0010
0000
0000
,  // measure 7
0000
0010
0000
0000
,  // measure 8
0000
1001
0000
0000
,  // measure 9
0000
1001
0000
0000
,  // measure 10
0000
0000
1000
0000
,  // measure 11
0000
0001
0000
0000
,  // measure 12
0000
0000
0100
0000
,  // measure 13
0000
0001
0000
0000
,  // measure 14
0000
0000
0010
0000
,  // measure 15
0000
0001
0000
0000
,  // measure 16
0000
0000
0001
0000
,  // measure 17
0000
1001
0000
0000
,  // measure 18
0000
0001
0000
0000
,  // measure 19
0000
0000
0000
0001
,  // measure 20
0000
0010
0000
0000
,  // measure 21
0000
0000
0000
0010
,  // measure 22
0010
1000
0000
0000
,  // measure 23
0000
0000
0000
1000
,  // measure 24
0000
0100
0000
0000
,  // measure 25
0000
0110
0000
0000
,  // measure 26
0000
0001
0000
0000
,  // measure 27
0000
0001
0000
0000
,  // measure 28
0000
1000
0000
0000
,  // measure 29
0000
1000
0000
0000
,  // measure 30
0000
0001
0000
0000
,  // measure 31
0000
0010
0000
0000
,  // measure 32
0000
1000
0000
0000
,  // measure 33
0000
0000
0110
0000
,  // measure 34
0000
0001
0000
1000
,  // measure 35
0000
0001
0000
1000
,  // measure 36
0000
0110
0000
0000
,  // measure 37
0000
0110
0000
0000
,  // measure 38
0000
1000
0000
0010
,  // measure 39
0000
0100
0000
0001
,  // measure 40
0000
0001
0000
0000
,  // measure 41
0000
0001
0000
0000
,  // measure 42
0000
1001
0000
0000
,  // measure 43
0000
0000
0000
0000
,  // measure 44
0000
0100
0000
0000
,  // measure 45
0000
1000
0000
0000
,  // measure 46
0000
0110
0000
0000
,  // measure 47
0000
0000
0000
0000
,  // measure 48
0000
0110
0000
0000
,  // measure 49
0000
0000
0000
0000
,  // measure 50
1001
0000
0000
0000
,  // measure 51
0000
1000
0000
0001
,  // measure 52
0000
1000
0000
0001
,  // measure 53
0000
0110
0000
0000
,  // measure 54
0000
0110
0000
0000
,  // measure 55
0000
0001
0000
0100
,  // measure 56
0000
0010
0000
1000
,  // measure 57
0000
1000
0000
0000
,  // measure 58
0000
1000
0000
0000
,  // measure 59
0000
0100
0000
0000
,  // measure 60
0000
1001
0000
0000
;

//---------------dance-single - ----------------
#NOTEDATA:;
#CHARTNAME:;
#CHARTHASH:221261873;
#STEPSTYPE:dance-single;
#BANNER:;
#DESCRIPTION:;
#CHARTSTYLE:;
#DIFFICULTY:Easy;
#METER:4;
#METERF:4.000000;
#RADARVALUES:0.000000,0.000000,0.000000,0.000000,0.000000,0.000000,0.000000,0.000000,0.000000,0.000000,0.000000,0.000000,0.000000,0.000000,0.000000,0.000000,0.000000,0.000000,0.000000,0.000000,0.000000,0.000000,0.000000,0.000000,0.000000,0.000000,0.000000,0.000000;
#CREDIT:;
#NOTES:
0000
0000
0000
0000
,
0000
0000
0000
0000
,
0000
0000
0000
0000
,
0000
0000
0000
0000
,
0000
0000
0000
0000
,
0000
0000
0000
0000
,
0000
0001
0001
0001
,
0001
1000
1000
1000
,
1000
0010
0010
0100
,
0100
0000
0000
0000
,
1001
0000
1000
0001
,
1000
0100
0010
0100
,
0010
0000
0001
1000
,
0001
0010
0100
0010
,
0100
0000
1000
0100
,
1000
0010
0001
0010
,
0001
0000
0001
0100
,
0001
1000
0010
1000
,
0010
1000
0000
1000
,
0000
0001
0001
0010
,
0100
0001
0000
0001
,
0000
1000
1000
0010
,
0100
0010
0010
0010
,
0010
0100
0100
1000
,
0001
0100
0100
0100
,
0100
0011
0000
1010
,
0000
2001
0000
0000
,
0000
3002
0000
0000
,
0000
2003
0000
0000
,
0000
3020
0000
0130
,
0100
1000
1000
1000
,
0000
0001
0001
0001
,
0000
0010
0100
0010
,
0100
0000
1001
0000
,
0000
0001
0100
1000
,
0000
1000
0100
0001
,
0000
1100
0000
0101
,
0000
0001
0010
0100
,
1000
0100
0100
0010
,
0000
0001
0001
1000
,
0000
0001
0010
0100
,
1000
0110
0000
0000
,
0000
2000
0000
3100
,
0000
0002
0000
0103
,
0000
1010
0000
0000
,
0000
0011
0000
0000
,
0000
0010
0010
0010
,
0100
0100
0100
0100
,
0010
1000
1000
0001
,
0001
0000
1001
0000
,
0000
0000
0000
0000
,
0000
1000
0010
0001
,
0000
0001
0010
1000
,
0000
1010
0000
0011
,
0000
1000
0100
0010
,
0001
0100
0100
0010
,
0010
1000
1000
0001
,
0001
0001
0010
0100
,
1000
0000
0002
1003
,
0020
1030
0000
0000
,
0000
0220
0000
0000
,
0330
2002
0000
0000
0000
0000
0000
0000
,
0000
0000
0000
0000
,
0000
3003
0000
0000
;

//---------------dance-single - ----------------
#NOTEDATA:;
#CHARTNAME:;
#CHARTHASH:1701603182;
#STEPSTYPE:dance-single;
#BANNER:;
#DESCRIPTION:;
#CHARTSTYLE:;
#DIFFICULTY:Medium;
#METER:12;
#METERF:12.000000;
#RADARVALUES:0.000000,0.000000,0.000000,0.000000,0.000000,0.000000,0.000000,0.000000,0.000000,0.000000,0.000000,0.000000,0.000000,0.000000,0.000000,0.000000,0.000000,0.000000,0.000000,0.000000,0.000000,0.000000,0.000000,0.000000,0.000000,0.000000,0.000000,0.000000;
#CREDIT:;
#NOTES:
0000
0000
0000
0000
,
0000
0000
0000
0000
,
0000
0000
0000
0000
,
0000
0000
0000
0000
,
0000
0000
0000
0000
,
0000
0000
0000
0000
,
0000
0000
0000
0001
0001
0001
1000
1000
,
0100
0100
0000
1000
1000
1000
0001
0001
,
0010
0010
0000
0001
1000
0001
1000
0010
,
1000
0100
0000
1001
1001
0000
0000
0000
,
0000
0000
0000
0000
1000
0001
0100
0001
,
1000
0100
0011
0000
1010
0000
1001
0000
,
1001
0000
0000
0000
1000
0001
0010
0001
,
1000
0010
1100
0000
0101
0000
1001
0000
,
1001
0000
0000
0000
0100
0010
1000
0010
,
0100
1000
1010
0000
1100
0000
0110
0000
,
0110
0000
0000
0000
0100
0010
0001
0010
,
0100
0001
1000
0100
0010
0001
0001
0010
,
0100
1000
0000
1000
0010
1000
0100
1000
,
0010
0010
1000
0001
1000
0001
0200
0320
,
0230
0310
0000
0001
0100
0001
0010
0001
,
0100
0100
0001
1000
0001
1000
0000
0110
,
0110
0110
0000
0100
0001
0100
1000
0100
,
0001
0001
1000
0001
1000
0001
0000
0010
,
1000
0100
0000
0010
0001
0010
1000
0010
,
0001
0000
0001
0000
1100
0000
0000
1100
0000
0000
0101
0000
0000
0101
0000
0000
,
0110
0000
0000
0000
0002
0000
0000
1003
0000
0000
1000
0000
1001
0000
0000
0000
,
0100
0000
0010
0000
2000
0000
0000
3001
0000
0000
0001
0000
1001
0000
0000
0000
,
0000
1100
0000
0000
0000
0101
0000
0000
,
0000
1001
0000
0020
0200
0000
0000
0330
,
1000
0000
0100
0000
0020
0000
0000
0130
0000
0000
0100
0000
0110
0000
0000
0000
,
0001
0000
0001
0000
0011
0000
0000
1010
0000
0000
0110
0000
0000
0000
0011
0000
,
0000
0100
0010
0000
0001
0001
0001
0001
,
1000
1001
0000
0110
0110
2000
3001
0200
,
0301
0000
0011
0000
2020
0000
3030
0000
0001
0000
0001
0000
1100
0000
0000
1010
,
0000
0000
0010
0000
0022
0000
0033
0000
1000
0000
1000
0000
0101
0000
0000
0011
,
0000
0000
2000
0000
3000
0100
0200
0000
,
0300
0010
0020
0000
0030
0001
0002
0000
,
0003
1001
0000
1000
1000
0100
0001
0100
,
0001
0100
0000
0001
0001
1000
0100
1000
,
0100
1000
0000
0001
0100
1000
0001
0010
,
1000
1000
0000
0000
1000
0010
0001
0010
,
0100
0000
0020
0000
0000
0100
1030
0000
,
0000
0000
0200
0000
0000
0010
0301
0000
,
0000
0001
1002
0000
0000
0010
0103
0000
,
0000
1000
2001
0000
0000
0100
3010
0000
,
0110
0000
0010
0010
0010
0100
1000
0000
,
1100
0000
0100
0100
0100
0010
0001
0000
,
0101
0000
1000
0100
0010
0001
0100
1000
,
0010
0001
0000
1001
1001
0000
0220
0330
,
0110
0000
0000
0000
0000
0002
1003
0020
,
1030
0000
1100
0000
0011
0000
0000
0000
1000
0000
1000
0000
1100
0000
0000
0011
,
0000
0000
0010
0000
1010
0000
0000
0000
0001
0000
0001
0000
0101
0000
0000
1010
,
0000
1000
0010
0001
1000
0001
0010
1000
,
0001
0100
0100
1000
0001
0010
0001
0000
,
1000
0000
0000
0001
0001
0010
1100
0000
,
0011
0000
0000
1000
1000
0100
1010
0000
,
0101
0000
0000
0001
0010
0100
1000
0001
,
0010
1000
0100
0000
2000
0000
3001
0001
,
0200
0310
0000
0220
0000
0000
0000
0000
,
0000
0330
1001
0000
0000
0001
0010
1000
,
0110
2002
0000
0000
0000
0000
0000
0000
,
0000
0000
0000
0000
,
0000
3003
0000
0000
;

//---------------dance-single - ----------------
#NOTEDATA:;
#CHARTNAME:;
#CHARTHASH:1398358348;
#STEPSTYPE:dance-single;
#BANNER:;
#DESCRIPTION:;
#CHARTSTYLE:;
#DIFFICULTY:Hard;
#METER:15;
#METERF:15.000000;
#RADARVALUES:0.000000,0.000000,0.000000,0.000000,0.000000,0.000000,0.000000,0.000000,0.000000,0.000000,0.000000,0.000000,0.000000,0.000000,0.000000,0.000000,0.000000,0.000000,0.000000,0.000000,0.000000,0.000000,0.000000,0.000000,0.000000,0.000000,0.000000,0.000000;
#CREDIT:;
#NOTES:
0000
0000
0000
0000
,
0000
0000
0000
0000
,
0000
0000
0000
0000
,
0000
0000
0000
0000
,
0000
0000
0000
0000
,
0000
0000
0000
0000
,
0000
0000
0000
0000
0000
0000
0100
0000
0100
0000
1000
0000
1000
0000
0100
0010
,
0000
0010
0001
0000
0000
0000
0100
0000
0100
0000
0001
0000
0001
0000
0010
0100
,
0000
0100
1000
0000
0000
0000
0100
0000
1000
0000
0001
0000
0100
0000
1000
0000
,
0001
0110
0000
0011
1100
0000
0000
0000
,
1001
0000
0000
0000
0000
0000
0000
0000
0100
0010
0001
0000
1100
0000
0100
0000
,
0001
0010
0001
0010
0100
0000
0001
0010
0000
1000
0100
0000
0001
0010
0000
0000
,
2000
0000
0000
0000
3001
0000
0000
0000
1000
0100
0010
0000
0101
0000
0100
0000
,
1000
0100
1000
0100
0010
0000
0001
0010
0000
1000
0100
0000
0010
0100
0000
0010
,
1000
0100
0010
0001
0000
0000
0000
0000
1000
0100
0001
0000
0110
0000
0010
0000
,
1000
0100
0001
0010
0100
0000
0001
1000
0000
0100
0010
0000
1000
0100
0000
0001
,
0020
0000
0000
0000
0130
0000
0000
0000
0001
0010
1000
0000
0110
0000
0100
0000
,
0001
0010
1000
0100
0010
0000
1000
0100
0000
0100
0010
0000
0010
0001
0000
0001
,
2000
0000
0000
0000
3001
0000
0001
0000
0010
0000
0100
1000
0000
0000
0010
0000
,
0001
1000
0100
0010
0001
0020
0100
0100
,
0100
0000
0130
0000
0010
0000
0010
0000
0001
0000
1000
0100
0000
0000
0001
0000
,
0100
1000
1000
0010
0100
1000
0000
0110
,
0110
0000
0011
0000
0000
0000
0010
0000
0100
0000
1000
0010
0000
0000
0100
0000
,
0100
1000
0001
0001
1000
0100
0000
0010
,
1000
0000
0010
0000
0000
0000
0100
0000
0010
0000
0001
0010
0000
0000
0010
0000
,
0100
0000
0001
0000
1010
0000
0000
0011
0000
0000
0101
0000
0000
1100
0000
0000
,
1001
0000
0000
0000
0010
0000
0000
0010
0000
0000
0100
0000
0110
0000
0000
0000
,
1000
0000
0001
0000
0100
0000
0000
0100
0000
0000
0010
0000
0110
0000
0000
0000
,
0000
0020
0000
0130
1000
0002
0000
1003
,
0010
0002
0000
0013
0002
0000
1003
0000
,
1000
0000
0100
0000
0010
0000
0000
0010
0000
0000
0001
0000
1001
0000
0000
0000
,
0001
0000
0001
0000
0100
0000
0000
0100
0000
0000
2000
0000
3000
0000
1001
0000
,
0000
0001
0020
0000
0130
0100
0010
0001
,
0110
0110
0000
1001
1001
0100
0010
0100
,
0010
0000
0100
0000
0020
0000
0000
0000
1030
0000
0100
0000
1000
0000
0000
0110
,
0000
0000
0010
0000
0200
0000
0000
0000
0301
0000
0010
0000
0001
0000
0000
0110
,
0000
0000
1000
0100
0010
0000
0001
0010
0000
0000
0001
0010
0100
0000
1000
0100
,
0000
0000
0001
0000
1000
0000
1000
0000
0010
0000
0010
0000
1000
0000
0001
0100
,
0000
0100
0001
0000
0000
0000
1000
0000
1000
0000
1000
0000
0100
0000
1000
0010
,
0000
0010
1000
0000
0000
0000
0001
0000
0001
0000
0001
0000
0010
0000
1000
0100
,
0000
0100
1000
0000
0000
0000
0100
0000
0100
0000
0100
0000
0010
0000
1000
0000
,
0001
0000
0202
0000
0000
0000
0303
0000
0010
0000
0100
0000
0001
0000
0010
0100
,
0000
0000
0000
0000
2000
0000
0000
0000
0000
0000
3100
0000
0011
0000
0001
1000
,
0000
0000
0000
0000
0200
0000
0000
0000
0000
0000
0310
0000
0101
0000
1000
0010
,
0000
0000
0100
0000
0010
0000
0001
1000
0000
0010
0001
0000
0000
0000
0000
0000
,
0000
0000
0010
0000
0100
0000
1000
0001
0000
0010
1000
0000
0000
0000
0000
0000
,
2200
3300
0001
1000
0001
0100
0001
0010
,
0001
0000
0010
1000
0010
0100
0010
0001
,
0010
0000
0100
0100
0100
0100
0100
0100
,
0100
0002
0000
0013
0110
0000
0010
0010
,
1001
0000
0200
0000
0300
0001
0010
0001
,
0010
0000
0001
0000
2200
0000
3300
0000
0010
0000
0010
0000
1100
0000
0000
0101
,
0000
0000
0100
0000
0022
0000
0033
0000
0100
0000
0100
0000
0011
0000
0000
1010
,
0000
0000
0010
0001
0010
0000
1000
1100
0000
0000
0100
1000
0100
0000
0001
0101
,
0000
0000
1000
0000
1000
0000
1000
0000
0010
0000
1000
0000
0010
0000
0001
0010
,
0000
0100
1000
0000
0000
0000
1000
0000
1000
0000
1000
0000
0100
0000
0010
0001
,
0000
0001
0010
0000
0000
0000
0001
0000
0001
0000
0001
0000
0010
0000
0100
1000
,
0000
1000
0100
0000
0000
0000
0100
0000
0100
0000
0100
0000
0010
0000
0001
0000
,
1000
0010
0000
0000
0011
0000
0100
1100
,
0001
1010
0000
0022
0000
0000
0000
0000
,
0000
0000
0033
0000
1000
0000
0001
1000
0000
0000
0001
0000
0010
0000
0100
0000
,
1001
2002
0000
0000
0000
0000
0000
0000
,
0000
0000
0000
0000
,
0000
3003
0000
0000
;
