#TITLE:Snow Black;
#SUBTITLE:;
#ARTIST:Lyrical Lily;
#TITLETRANSLIT:;
#SUBTITLETRANSLIT:;
#ARTISTTRANSLIT:;
#GENRE:;
#CREDIT:;
#BANNER:Snow Black.png;
#BACKGROUND:Snow Black-bg.png;
#LYRICSPATH:;
#CDTITLE:;
#MUSIC:Snow Black.ogg;
#OFFSET:0.600000;
#SAMPLESTART:39.315113;
#SAMPLELENGTH:12.000000;
#SELECTABLE:YES;
#BPMS:0.000000=124.000000
;
#STOPS:
;
#BGCHANGES:1.000=Snow Black.mp4=1.000=0=0=0=StretchNoLoop==CrossFade_Fastest==,
99999.000=-nosongbg-=1.000=0=0=0=StretchNoLoop====,
99999=-nosongbg-=1.000=0=0=0 // don't automatically add -songbackground-
;
#KEYSOUNDS:;
#ATTACKS:;

//---------------dance-single - ----------------
#NOTES:
     dance-single:
     :
     Beginner:
     1:
     0.059453,0.142192,0.092483,0.000000,0.000000,54.000000,42.000000,12.000000,0.000000,0.000000,0.000000,0.059453,0.142192,0.092483,0.000000,0.000000,54.000000,42.000000,12.000000,0.000000,0.000000,0.000000:
0000
0000
0000
0000
,
0000
0000
0000
0000
,
0000
0000
0000
0000
,
0000
0000
0000
0000
,
0000
0000
0000
0000
,
0001
0000
0000
0000
,
0001
0000
0000
0000
,
1000
0000
0000
0000
,
1000
0000
0000
0000
,
0001
0000
0000
0000
,
0001
0000
0000
0000
,
1000
0000
0000
0000
,
1000
0000
0000
0000
,
0110
0000
0000
0000
,
0000
0000
0000
0000
,
0110
0000
0000
0000
,
0000
0000
0000
0000
,
1001
0000
0000
0000
,
0000
0000
0000
0000
,
0000
0000
0000
0000
,
0000
0000
0000
0000
,
1000
0000
0000
0000
,
0000
0000
0000
0000
,
0100
0000
0000
0000
,
0000
0000
0000
0000
,
0001
0000
0000
0000
,
0000
0000
0000
0000
,
0010
0000
0000
0000
,
0000
0000
0000
0000
,
0000
0000
0000
0000
,
0000
1001
0000
0000
,
0000
0000
0000
0000
,
0000
0000
0000
0000
,
0000
0000
0000
0000
,
0000
1001
0000
0000
,
0000
0000
0000
0000
,
0000
0000
0000
0000
,
0000
0000
0000
0000
,
0000
1001
0000
0000
,
0000
1001
0000
0000
,
0000
0110
0000
0000
,
0000
0110
0000
0000
,
0000
0110
0000
0000
,
0000
0110
0000
0000
,
0000
1001
0000
0000
,
0000
0000
0000
0000
,
0000
0000
0000
0000
,
0001
0000
0000
0000
,
0000
0000
0000
0000
,
0010
0000
0000
0000
,
0000
0000
0000
0000
,
1000
0000
0000
0000
,
0000
0000
0000
0000
,
0100
0000
0000
0000
,
0000
0000
0000
0000
,
1000
0000
1000
0000
,
0100
0000
0100
0000
,
0001
0000
0001
0000
,
0010
0000
0010
0000
,
1000
0000
1000
0000
,
0100
0000
0100
0000
,
0010
0000
0001
0000
;

//---------------dance-single - ----------------
#NOTES:
     dance-single:
     :
     Easy:
     3:
     0.165148,0.249992,0.138724,0.061655,0.000000,150.000000,132.000000,18.000000,8.000000,0.000000,0.000000,0.165148,0.249992,0.138724,0.061655,0.000000,150.000000,132.000000,18.000000,8.000000,0.000000,0.000000:
0000
0000
0000
0000
,
0000
0000
0000
0000
,
0000
0000
0000
0000
,
0000
0000
0000
0000
,
0000
0000
0000
0000
,
0010
0010
0010
0000
,
1000
1000
0000
0000
,
0001
0001
0001
0000
,
1000
1000
0100
0100
,
0010
0010
0010
0000
,
0001
0001
0000
0000
,
0001
0001
0001
0001
,
1000
1000
0001
0001
,
1001
0000
0000
2002
,
0000
0000
3003
0000
,
0110
0000
0000
0220
,
0000
0000
0330
0000
,
1001
0000
0000
2002
,
0000
0000
3003
0000
,
0000
1000
1000
1000
,
0001
0001
0001
0000
,
1100
0000
1100
0000
,
1000
1000
0100
0100
,
0101
0000
0101
0000
,
0100
0100
0001
0001
,
0011
0000
0011
0000
,
0001
0001
0010
0010
,
1010
0000
1010
0000
,
1000
1000
0100
0100
,
0010
0010
0001
0000
,
0000
1001
0000
0000
,
0010
0000
0000
0000
,
0010
0000
0000
0000
,
0100
0000
0000
0000
,
0000
1001
0000
0000
,
0001
0000
0000
0000
,
0001
0000
0000
0000
,
1000
0000
0000
0000
,
0000
1000
0000
1000
,
0000
0010
0000
0010
,
0000
0100
0000
0010
,
0000
0000
0000
0000
,
0000
0001
0000
0001
,
0000
0100
0000
0100
,
0000
0010
0000
0100
,
2002
0000
0000
0000
,
3003
0000
0000
0000
,
1000
0000
1000
0000
,
0001
0001
0010
0010
,
0001
0000
0001
0000
,
1000
1000
0010
0010
,
0100
0000
0100
0000
,
0010
0010
0001
0001
,
0010
0000
0010
0000
,
1000
1000
0010
0010
,
0001
0000
0001
0000
,
1000
1000
0100
0100
,
1000
0000
1000
0000
,
0001
0001
0100
0100
,
0010
0000
0100
0000
,
0001
0001
0100
0100
,
1000
1000
0100
0100
,
0000
0000
0000
0000
,
0000
0000
0000
0000
,
0000
0000
0000
0000
0000
0000
0000
1001
;

//---------------dance-single - ----------------
#NOTES:
     dance-single:
     :
     Medium:
     9:
     0.285155,0.429081,0.331396,0.315983,0.000000,259.000000,216.000000,43.000000,41.000000,0.000000,0.000000,0.285155,0.429081,0.331396,0.315983,0.000000,259.000000,216.000000,43.000000,41.000000,0.000000,0.000000:
0000
0000
0000
0000
,
0000
0000
0000
0000
,
0000
0000
0000
0000
,
0000
0000
0000
0000
,
0000
0000
0000
0000
,
0001
0100
0001
1000
0001
0000
0011
0000
,
0001
0010
0001
1000
0000
0000
0000
0000
,
1000
0010
1000
0001
1000
0000
1100
0000
,
1000
0100
1000
0001
0010
0100
0001
0000
,
0010
1000
0010
0001
0010
0000
0110
0000
,
0010
0100
0010
0001
0000
0000
0000
0100
,
0001
0100
0010
0100
1000
0000
1001
0000
,
0001
1000
0010
0001
1000
0001
0100
1000
,
0022
0000
0033
0220
0000
0330
2200
0000
,
0000
0000
3300
0000
,
2020
0000
3030
2002
0000
3003
0202
0000
,
0000
0000
0303
0000
,
2020
0000
3030
0220
0000
0330
0022
0000
,
0000
0000
0000
0000
0033
0001
0010
2100
,
0000
0000
0000
0000
0000
0000
0000
0002
,
0000
0000
0000
3003
0000
0100
0010
1001
,
0000
0000
0100
0010
1000
0000
0000
1001
,
0000
0010
0100
0010
0100
0000
0110
0000
,
0000
0100
0010
0100
0001
0000
0000
2002
,
0000
0000
0000
0000
3003
1000
0100
0011
,
0000
0000
0010
0100
1000
0000
0000
1100
,
0000
0100
0010
1000
0001
0000
0000
0000
,
1000
0000
0010
0001
1000
0000
0000
0022
,
0000
0000
0000
0000
,
0000
0000
0000
0000
0033
0100
0010
1001
,
0000
2002
0000
3003
,
1000
1000
1000
1000
,
0100
0100
0100
0100
,
0100
0000
0100
0000
0000
1000
0100
0011
,
0000
0000
2002
0000
0000
3003
0010
0000
,
0010
0010
0010
0010
,
0002
0000
0000
0000
,
0003
0000
0000
0000
0000
0001
1000
0110
,
0000
0110
0000
0010
,
0000
0010
0000
0010
,
0000
0100
0000
0100
,
0000
0000
0000
0000
0000
0001
0010
1100
,
0000
1001
0000
0001
,
0000
0001
0000
0001
,
0000
0001
0000
0022
,
0000
0000
0000
0000
,
0033
0000
0000
0000
0000
0001
1000
0110
,
0000
0000
1000
0010
0001
0000
0000
0100
,
0001
0100
0010
0001
0010
0000
0000
0000
,
0000
0100
1000
0100
0001
0000
0000
2002
,
0000
0000
0000
0000
3003
0001
0010
1100
,
0000
0000
0100
0010
0100
0000
0000
0110
,
0000
0010
0001
0010
1000
0000
0000
0000
,
0100
0000
1000
0010
0001
0000
0000
0202
,
0000
0000
0000
0000
0303
0100
0010
0110
,
0000
0000
1000
0010
1000
0100
0010
0100
,
0010
0100
1000
0010
0100
0000
0110
0000
,
0000
0010
0100
1000
0010
0000
0110
0000
,
0100
0010
0001
0100
0000
1000
0001
1001
,
0000
0000
0001
1000
0100
0001
1000
0001
,
1000
0010
0001
1000
0001
0000
1001
0000
,
1100
0000
1000
0001
0010
0000
0000
2000
,
0000
0000
0000
0000
0000
0000
0000
0200
,
0000
0000
0000
0000
0000
0000
3300
0022
,
0000
0000
0000
0000
0000
0000
0033
2002
,
0000
0000
3003
0000
;

//---------------dance-single - ----------------
#NOTES:
     dance-single:
     :
     Hard:
     13:
     0.391951,0.479561,0.485534,0.570310,0.115603,356.000000,293.000000,63.000000,74.000000,0.000000,0.000000,0.391951,0.479561,0.485534,0.570310,0.115603,356.000000,293.000000,63.000000,74.000000,0.000000,0.000000:
// measure 0
0000
0000
0000
0000
,  // measure 1
0000
0000
0000
0000
,  // measure 2
0000
0000
0000
0000
,  // measure 3
0000
0000
0000
0000
,  // measure 4
0000
0000
0000
0000
,  // measure 5
0010
0000
0100
0000
0001
0000
1000
0000
0101
0000
0000
1100
0000
0000
0010
0000
,  // measure 6
0001
0010
0000
0002
0000
0000
1003
0000
0000
0000
0000
0000
1001
0000
0000
0000
,  // measure 7
1000
0000
1000
0000
0001
0000
0001
0000
0200
0000
0000
1300
0000
0000
0100
0000
,  // measure 8
1000
0100
0000
2000
0000
0000
3100
0000
0001
0010
0000
0200
0000
0000
0300
0000
,  // measure 9
0010
0000
0010
0000
0100
0000
0100
0000
0020
0000
0000
0032
0000
0000
0103
0000
,  // measure 10
1000
0000
0000
2000
0000
0000
3001
0000
0000
0000
0000
0000
1001
0000
1000
0000
,  // measure 11
0010
0000
0100
0000
0001
0000
0100
0000
0002
0000
0000
0023
0000
0000
0130
0000
,  // measure 12
0010
0000
1000
0000
0001
0000
0100
0000
0020
0000
0000
0230
0000
0000
1300
0000
,  // measure 13
2100
0000
3100
0102
0000
0103
0220
0000
,  // measure 14
0000
0000
0000
0330
0010
0000
0010
0000
,  // measure 15
0012
0000
0013
2010
0000
3010
2002
0000
,  // measure 16
0000
0000
0000
3003
0001
0000
0001
0000
,  // measure 17
1200
0000
1300
1020
0000
1030
0220
0000
,  // measure 18
0000
0000
0000
0330
0010
0010
0010
2002
,  // measure 19
0000
0000
0000
0000
0000
0000
3003
0022
,  // measure 20
0000
0000
0000
0000
0033
1000
0100
0021
,  // measure 21
0031
0000
0000
0000
0100
0000
0100
0000
2000
0000
0000
3002
0000
0000
0023
0000
,  // measure 22
0000
0000
0031
0000
1000
0000
0001
0000
2000
0000
0000
0020
0000
0000
3030
0000
,  // measure 23
1100
0000
1000
0000
0010
0000
0100
0000
0001
0000
0000
0001
0000
0000
0002
0000
,  // measure 24
0000
0000
0000
0000
0003
0001
0100
2010
,  // measure 25
3010
0000
0000
0000
0010
0000
0100
0000
2000
0000
0000
3020
0000
0000
0032
0000
,  // measure 26
0000
0000
0103
0000
0010
0000
0100
0000
2000
0000
0000
3020
0000
0000
0031
0000
,  // measure 27
2000
0000
0000
0000
3010
0000
0001
0000
0100
0000
0000
0011
0000
0000
0202
0000
,  // measure 28
0000
0000
0000
0000
,  // measure 29
0000
0000
0000
0000
0303
1000
0100
0011
,  // measure 30
0000
0000
2001
0000
0001
0000
0001
0001
,  // measure 31
0001
0000
0001
0000
0001
0000
0001
0001
,  // measure 32
0001
0000
0001
0000
0001
0000
0001
0001
,  // measure 33
0001
0000
0001
0000
3001
0001
0100
1010
,  // measure 34
0000
0000
1002
1000
1000
1000
1000
1000
,  // measure 35
1000
1000
1000
1000
1000
1000
1000
1000
,  // measure 36
2000
0000
0000
0000
,  // measure 37
3003
0000
0000
0000
0000
1000
0001
0110
,  // measure 38
1000
0100
0011
0000
1000
0010
0101
0000
,  // measure 39
1000
0100
0011
0000
1000
0010
0101
0000
,  // measure 40
0001
0100
1010
0000
0001
0010
1100
0000
,  // measure 41
0001
0100
1010
0000
0100
0001
1000
0110
,  // measure 42
0001
1000
1010
0000
1000
0001
0011
0000
,  // measure 43
0001
1000
1010
0000
1000
0001
0011
0000
,  // measure 44
0001
1000
1100
0000
1000
0001
0101
0000
,  // measure 45
0001
1000
1100
0000
0220
0000
0000
0000
,  // measure 46
0330
0000
0000
0000
0000
1000
0001
0110
,  // measure 47
1002
0000
0000
0000
1003
0000
0010
0000
0002
0000
0000
0203
0000
0000
1300
0000
,  // measure 48
0001
0000
0100
0000
1000
0000
0001
0000
0020
0000
0000
1030
0000
0000
0000
0000
,  // measure 49
0120
0000
0100
0000
1030
0000
0000
0000
0001
0000
0000
0001
0000
0000
0002
0000
,  // measure 50
0000
0000
0000
0000
0003
1000
1000
1001
,  // measure 51
0000
0000
0000
0000
0100
0000
1000
0000
0020
0000
0000
0032
0000
0000
1003
0000
,  // measure 52
0000
0000
0010
0000
0001
0000
0010
0000
0200
0000
0000
2300
0000
0000
3001
0000
,  // measure 53
1001
0000
0000
0000
1000
0000
0010
0000
0002
0000
0000
2003
0000
0000
3200
0000
,  // measure 54
0000
0000
0000
0000
0300
0001
0001
1001
,  // measure 55
0000
0000
0000
0000
0100
0000
0010
0000
2000
0000
0000
3002
0000
0000
0203
0000
,  // measure 56
0000
0000
0301
0000
1000
0000
0010
0000
0011
0000
0000
1100
0000
0000
0000
0000
,  // measure 57
1001
0000
0100
0000
1000
0000
0100
0000
1010
0000
0000
0011
0000
0000
1001
0000
,  // measure 58
0000
0010
0001
0100
0000
0100
0100
1001
,  // measure 59
0000
0000
0000
0000
1000
0000
0001
0000
0101
0000
0000
1100
0000
0000
1001
0000
,  // measure 60
0000
0000
0010
0000
0001
0000
1000
0000
2000
0000
0000
3002
0000
0000
0103
0000
,  // measure 61
1000
0000
0000
0000
0001
0000
0001
0000
0011
0000
0000
1010
0000
0000
2200
0000
,  // measure 62
0000
0000
0000
0000
0000
0000
3300
0220
,  // measure 63
0000
0000
0000
0000
0000
0000
0330
0022
,  // measure 64
0000
0000
0000
0000
0000
0000
0033
2002
,  // measure 65
0000
0000
3003
0000
;
