#TITLE:Princess advent;
#SUBTITLE:;
#ARTIST:Merm4id;
#TITLETRANSLIT:;
#SUBTITLETRANSLIT:;
#ARTISTTRANSLIT:;
#GENRE:;
#CREDIT:;
#BANNER:Princess advent.png;
#BACKGROUND:Princess advent-BG.png;
#LYRICSPATH:;
#CDTITLE:;
#MUSIC:Princess advent.ogg;
#OFFSET:-0.195000;
#SAMPLESTART:68.923584;
#SAMPLELENGTH:12.000000;
#SELECTABLE:YES;
#BPMS:0.000000=137.000000
;
#STOPS:
;
#BGCHANGES:1.000=EV01452N.mpg=1.000=0=0=1===CrossFade_Fastest==,
33.000=640_JumpBack.avi=1.000=0=0=1=====,
41.000=972_JumpBack.mpg=1.000=0=0=1=====,
73.000=666_JumpBack.mpg=1.000=0=0=1=====,
89.000=jb_043.mpg=1.000=0=0=1=====,
113.000=vol4-10-ntsc.mpg=1.000=0=0=1=====,
141.000=732_JumpBack.mpg=1.000=0=0=1=====,
153.000=countdown.mp4=0.800=0=0=1=====,
157.000=VOL1-15-NTSC.mpg=1.000=0=0=1=====,
221.000=920_JumpBack.mpg=1.000=0=0=1=====,
237.000=EV01439N.mpg=1.000=0=0=1=====,
99999.000=-nosongbg-=1.000=0=0=0=StretchNoLoop====,
99999=-nosongbg-=1.000=0=0=0 // don't automatically add -songbackground-
;
#KEYSOUNDS:;
#ATTACKS:;

//---------------dance-single - ----------------
#NOTES:
     dance-single:
     :
     Easy:
     5:
     0.263874,0.279085,0.080699,0.026900,0.000000,206.000000,197.000000,9.000000,3.000000,0.000000,0.000000,0.263874,0.279085,0.080699,0.026900,0.000000,206.000000,197.000000,9.000000,3.000000,0.000000,0.000000:
0000
0000
0000
0000
,
0000
0000
0000
0000
,
0000
0000
0000
0000
,
0000
0000
0000
0000
,
0000
0000
0000
0000
,
0000
0000
0000
0000
,
0000
0001
0001
0001
,
1000
1000
1000
0001
,
1000
1001
0000
0000
,
0000
0000
0000
0000
,
0000
0001
0001
0001
,
0001
0010
0010
0010
,
0010
1000
1000
1000
,
0001
0001
0001
1000
,
0001
1000
1000
1000
,
1000
0100
0100
0100
,
0100
0001
0001
0001
,
1000
1000
1000
0001
,
1000
0001
0010
0001
,
0010
1000
0010
1000
,
0010
0001
0100
0001
,
0100
1000
0100
1000
,
0000
0001
0001
0010
,
0010
1000
1000
1000
,
1000
0001
0001
0001
,
1000
1000
1000
0001
,
1000
0100
0100
1000
,
1000
0100
0100
0100
,
0100
0001
1000
0001
,
0000
0001
0100
0001
,
0000
1000
0100
1000
,
0000
1000
0001
1000
,
0000
1000
1000
0010
,
0000
0001
0001
0010
,
0000
1000
1000
1000
,
1000
0100
0100
0100
,
0100
0010
0010
0010
,
0010
0002
0000
0000
,
0000
0003
0000
0000
,
1001
0001
0001
0001
,
0000
1000
0001
1000
,
0001
1000
1000
1000
,
1000
0001
1000
0001
,
1000
0001
0001
0001
,
0001
1000
0001
1000
,
0010
0100
0100
0010
,
0010
0001
0010
0100
,
1000
0001
0001
0001
,
0001
1000
0001
1000
,
0001
1000
1000
1000
,
1000
0001
1000
0001
,
1000
0001
0001
0001
,
0001
1000
0001
1000
,
0100
0010
0010
0100
,
0100
1000
0100
0010
,
0001
1000
0001
1001
,
0000
0001
1000
1001
,
0000
1000
0001
1001
,
0000
0220
0000
0330
,
0110
1000
0001
1100
,
0000
0001
1000
0101
,
0000
1000
0100
0010
,
0001
0100
0000
0000
;

//---------------dance-single - ----------------
#NOTES:
     dance-single:
     :
     Medium:
     12:
     0.463701,0.510424,0.179332,0.242098,0.008967,362.000000,342.000000,20.000000,27.000000,0.000000,0.000000,0.463701,0.510424,0.179332,0.242098,0.008967,362.000000,342.000000,20.000000,27.000000,0.000000,0.000000:
0000
0000
0000
0000
,
0000
0000
0000
0000
,
0000
0000
0001
0000
0000
0002
0000
0000
,
1003
0000
0000
2000
0000
0000
3001
0010
,
0200
0000
0310
0000
0000
0020
0000
0000
,
0130
0000
0000
0200
0000
0000
1300
0100
,
0001
0000
0011
0000
0000
0100
0000
0000
,
1100
0000
0000
0010
0000
0000
1000
0100
,
0002
0000
0000
0000
1003
0000
0000
0000
0001
0000
0000
0001
0000
0001
1000
0000
,
0002
0000
0203
0320
0230
0302
0013
0100
,
1000
0000
1000
0001
0100
0000
0001
1000
,
0100
0000
1000
0001
1000
0100
1000
0010
,
0001
0000
1001
0000
0000
0002
0000
0000
,
1003
0000
0000
2000
0000
0000
3100
0010
,
0002
0000
1003
0001
0010
0000
0001
1000
,
0010
0000
0001
1000
0001
0010
0001
0100
,
1000
0000
0110
0000
0000
0020
0000
0000
,
0130
0000
0000
0200
0000
0000
0301
0010
,
2000
0000
3001
0000
0001
0010
0001
0000
,
1100
0000
1000
0010
1000
0000
0101
0000
,
0001
1000
0001
0000
1000
0100
1000
0000
,
0011
0000
0001
0100
0001
0000
1010
0000
,
1000
0001
1000
0100
1000
0100
0001
0100
,
0001
0100
0010
1000
0010
1000
0010
0001
,
0010
0001
1001
0000
0000
0002
0000
0000
,
1003
0000
0000
2000
0000
0000
3100
0010
,
0002
0000
1003
0010
1000
0010
0001
0010
,
0001
0010
0100
1000
0100
1000
0100
0001
,
0100
0001
2000
0000
0000
0000
0001
3001
,
0000
2002
0000
0000
3003
0000
0001
0001
,
0010
0010
0100
0100
0010
0010
0100
0010
,
0100
0010
0000
0110
0000
0000
0001
0001
,
1000
1000
0002
0000
0000
0000
1000
1003
,
0000
1001
0000
0100
0001
0100
0010
0000
,
0110
0000
1000
1000
1000
1000
0001
0001
,
0001
0001
1001
0000
0000
0000
0000
0000
,
0000
0000
0000
0000
,
0000
0000
1000
0001
0100
0001
1000
0010
,
0100
0001
0100
0000
0100
0000
0010
0000
,
1001
0000
0001
0000
0001
0000
0001
0010
,
0100
0000
1000
0001
1000
0001
0100
0001
,
0100
0001
0001
1000
0001
1000
0010
1000
,
0100
0001
1000
0010
1000
0010
0100
0010
,
0100
0010
0001
1000
0010
1000
0100
1000
,
0100
0100
1000
0010
1000
0010
1000
0001
,
0010
0100
0000
1000
0100
0010
0000
0001
,
0010
0100
0000
1000
0100
0010
0000
1000
,
0100
0010
0001
1000
0001
1000
0001
0001
,
1000
1000
0010
1000
0010
1000
0010
0100
,
0010
0100
0010
0001
1000
0001
0010
1000
,
0100
0100
0010
0001
0010
0001
0100
0010
,
0100
0010
0001
0001
1000
1000
0100
0001
,
0100
0010
1000
0100
1000
0010
1000
0001
,
0010
0100
0000
0010
0100
1000
0000
0100
,
0010
0001
0000
1000
0100
0010
0000
0000
,
1001
0001
0001
1001
,
1001
0000
1000
0100
1000
0100
1000
0001
,
1000
0000
0001
0010
0001
0010
0001
1000
,
0001
0000
2002
0000
0000
0000
0000
3003
,
0110
0000
1000
0100
0001
0000
0001
0100
,
1000
0000
0100
1000
0010
0000
0010
0001
,
0100
0000
0001
0100
1000
0001
0010
1000
,
0100
0010
0002
0000
0000
0000
0000
0000
,
0000
0003
0000
0000
;

//---------------dance-single - ----------------
#NOTES:
     dance-single:
     :
     Hard:
     14:
     0.585391,0.850706,0.376597,0.681462,0.219682,457.000000,415.000000,42.000000,76.000000,0.000000,0.000000,0.585391,0.850706,0.376597,0.681462,0.219682,457.000000,415.000000,42.000000,76.000000,0.000000,0.000000:
0000
0000
0000
0000
,
0000
0000
0000
0000
,
0000
0000
0010
0000
0010
0002
0000
0000
,
1003
0000
1000
2000
0000
0000
3001
0010
,
2200
0300
3010
0000
0010
2000
0000
0000
,
3100
0000
0100
0200
0000
0000
1300
0100
,
0022
0030
0013
0000
0010
0200
0000
0000
,
0301
0000
0001
0020
0000
0000
0031
0100
,
2020
0000
0030
0000
3010
0000
0010
0000
1010
0000
0000
0100
0000
0010
0100
0000
,
0101
0000
0002
2003
3002
2003
3002
0000
,
2003
0000
3100
0000
0001
2000
0000
3100
,
0001
0020
0000
0031
0000
0010
0011
0000
,
1001
0000
1010
0010
0010
0120
0000
0000
,
0130
0100
0100
0210
0000
1000
0310
0001
,
0001
0000
1000
0000
0100
2000
0000
3100
,
0010
0002
0000
0103
0100
0010
0021
0000
,
0130
0000
1001
1000
1000
2001
0000
0000
,
3001
0001
0001
1002
0000
1000
0103
0010
,
0010
0000
0000
0000
1000
0010
1000
0010
1000
0000
1010
0000
0001
0010
0001
0010
,
0001
0000
0011
0000
1000
0010
1000
0010
1000
0000
1010
0000
0001
0100
0001
0100
,
0001
0000
0101
0000
1000
0100
1000
0100
1000
0000
1100
0000
0001
0100
0001
0100
,
0001
0000
0101
0000
1000
0100
1000
0100
1000
0000
1100
0000
0001
0010
0001
0010
,
0001
0000
0011
0000
1000
0001
0000
0000
1000
0010
0100
0000
1000
0001
1000
0010
,
1000
0000
1100
0000
0001
1000
0000
0000
0001
0100
0010
0000
0001
1000
0001
0100
,
0001
0011
1100
0100
0100
0210
0000
0000
,
0310
0010
0010
0021
0000
0000
0031
0010
,
0200
0000
0000
0000
0310
1000
0000
0000
0001
0100
0010
0000
1000
0001
1000
0010
,
1000
0000
1100
0000
0100
0001
0000
0000
1000
0010
0100
0000
0001
1000
0001
0100
,
0001
0011
2100
0000
0000
0000
3001
0100
,
0000
0201
0000
0310
0000
0010
0000
0010
,
0100
0010
0010
0100
1000
0100
0001
1000
,
0010
0100
0000
0012
0000
0013
0000
0010
,
0100
0010
0002
0000
0000
0000
1003
0001
,
0000
1001
0000
0010
0001
1000
0110
0000
,
1001
0000
0010
0010
0010
0010
0010
0010
,
0010
0010
0001
0010
0001
0010
0001
0010
,
0002
0000
0013
0100
0010
0100
0010
0100
,
0020
0000
0000
0030
2200
0000
0000
0000
0000
0000
0000
0000
0000
0000
0000
0000
,
0000
3300
1000
0000
0100
0000
0010
0000
,
1001
0000
1100
0000
0011
0000
0001
0001
,
1000
0000
2000
3001
2000
3001
2000
3001
,
2000
3001
0100
1000
0001
0010
0001
0010
,
0100
1000
0002
1003
0002
1003
0002
1003
,
0002
1003
0010
0001
1000
0100
1000
0100
,
0010
0001
0200
0310
0200
0310
0200
0310
,
0100
2000
0000
3100
0010
0002
0000
0013
,
0100
2000
0000
3100
0010
0002
0000
0013
,
0100
1000
0002
0103
2000
3100
0002
0103
,
2000
3001
2000
3100
2000
3100
0002
0103
,
0002
0103
0010
1000
0010
0001
0010
1000
,
0010
0001
2000
3010
2000
3010
0002
0013
,
0002
0013
0001
0001
1000
1000
0001
0010
,
1000
0100
2000
3001
0002
1003
2000
3001
,
0010
0200
0000
1300
0100
0020
0000
0031
,
0010
0200
0000
1300
0100
0020
0000
0030
,
1001
0000
0000
0000
0001
0100
0001
0100
0000
0000
0000
0000
0022
0000
0033
0000
,
1100
0000
0000
0000
1000
0000
0010
0000
1000
0000
0010
0000
0001
0010
0001
0010
,
0001
0000
0000
0000
1000
0100
1000
0100
1000
0000
0000
0000
0001
0100
0001
0100
,
0001
0020
0000
0000
,
0130
0000
0000
0000
1000
0000
0010
0000
1000
0000
0000
0000
0001
0010
0001
0010
,
0001
0000
0000
0000
1000
0010
1000
0010
1000
0000
0000
0000
0001
0010
0001
0010
,
0001
0000
1000
0010
0001
0010
1000
0100
,
0001
0100
2000
0000
0000
0000
0000
0000
,
0000
3000
0000
0000
;

//---------------dance-single - ----------------
#NOTES:
     dance-single:
     :
     Beginner:
     1:
     0.087104,0.167451,0.026900,0.000000,0.000000,68.000000,65.000000,3.000000,0.000000,0.000000,0.000000,0.087104,0.167451,0.026900,0.000000,0.000000,68.000000,65.000000,3.000000,0.000000,0.000000,0.000000:
// measure 0
0000
0000
0000
0000
,  // measure 1
0000
0000
0000
0000
,  // measure 2
0000
0000
0000
0000
,  // measure 3
0000
0000
0000
0000
,  // measure 4
0000
0000
0000
0000
,  // measure 5
0000
0000
0000
0000
,  // measure 6
0000
0000
0000
0000
,  // measure 7
0000
0000
0000
0000
,  // measure 8
0000
0000
0000
0000
,  // measure 9
0000
0000
0000
0000
,  // measure 10
0000
0001
0000
0000
,  // measure 11
0000
0001
0000
0000
,  // measure 12
0000
1000
0000
0000
,  // measure 13
0000
1000
0000
0000
,  // measure 14
0000
0001
0000
0000
,  // measure 15
0000
0001
0000
0000
,  // measure 16
0000
0100
0000
0000
,  // measure 17
0000
0100
0000
0000
,  // measure 18
0000
0110
0000
0000
,  // measure 19
0000
0000
0000
0000
,  // measure 20
0000
0000
0000
0000
,  // measure 21
0000
0000
0000
0000
,  // measure 22
0000
1000
0000
0000
,  // measure 23
0000
0001
0000
0000
,  // measure 24
0000
1000
0000
0000
,  // measure 25
0000
1000
0000
0000
,  // measure 26
0000
0100
0000
0000
,  // measure 27
0000
0010
0000
0000
,  // measure 28
0000
0001
0000
0000
,  // measure 29
0000
0001
0000
0000
,  // measure 30
0000
0010
0000
0000
,  // measure 31
0000
0010
0000
0000
,  // measure 32
0000
1000
0000
0000
,  // measure 33
0000
1000
0000
0000
,  // measure 34
0000
0100
0000
0000
,  // measure 35
0000
0100
0000
0000
,  // measure 36
0000
0000
0000
0000
,  // measure 37
0000
0000
0000
0000
,  // measure 38
0000
0100
0000
0000
,  // measure 39
1001
0001
0000
0001
,  // measure 40
0000
1000
0000
0001
,  // measure 41
0000
1000
0000
1000
,  // measure 42
0000
0001
0000
1000
,  // measure 43
0000
0001
0000
0001
,  // measure 44
0000
0100
0000
0010
,  // measure 45
0000
0001
0000
0001
,  // measure 46
0000
0001
0000
0001
,  // measure 47
0000
1000
0000
1000
,  // measure 48
0000
0010
0000
0100
,  // measure 49
0000
0001
0000
0001
,  // measure 50
0000
0100
0000
0010
,  // measure 51
0000
0100
0000
0100
,  // measure 52
0000
0001
0000
1000
,  // measure 53
0000
0001
0000
0001
,  // measure 54
0000
0001
0000
0001
,  // measure 55
0000
1000
0000
0000
,  // measure 56
0000
1000
0000
0000
,  // measure 57
0000
1000
0000
0000
,  // measure 58
0000
1001
0000
0000
,  // measure 59
0000
0001
0000
0000
,  // measure 60
0000
0001
0000
0000
,  // measure 61
0000
0001
0000
0000
,  // measure 62
0000
1000
0000
0000
;
