#TITLE:OVERWHELM!;
#SUBTITLE:;
#ARTIST:Peaky P-key;
#TITLETRANSLIT:;
#SUBTITLETRANSLIT:;
#ARTISTTRANSLIT:;
#GENRE:;
#CREDIT:;
#BANNER:OVERWHELM!.png;
#BACKGROUND:OVERWHELM!-BG.png;
#LYRICSPATH:;
#CDTITLE:;
#MUSIC:OVERWHELM!.ogg;
#OFFSET:0.000000;
#SAMPLESTART:80.487480;
#SAMPLELENGTH:12.000000;
#SELECTABLE:YES;
#BPMS:0.000000=145.000000
;
#STOPS:
;
#BGCHANGES:;
#KEYSOUNDS:;
#ATTACKS:;

//---------------dance-single - ----------------
#NOTES:
     dance-single:
     :
     Easy:
     4:
     0.223475,0.348732,0.250637,0.060499,0.000000,181.000000,152.000000,29.000000,7.000000,0.000000,0.000000,0.223475,0.348732,0.250637,0.060499,0.000000,181.000000,152.000000,29.000000,7.000000,0.000000,0.000000:
0000
0000
0000
0000
,
0000
0000
0000
0000
,
0000
0000
0000
0000
,
0000
0000
0000
0000
,
0000
0000
0000
0000
,
0000
0000
0000
0000
,
0000
0000
0000
0000
,
0000
0000
0000
0000
,
0000
0000
0000
0000
,
0000
0000
0000
0000
,
0000
0000
0000
0000
,
0000
0000
0000
0000
,
0001
0001
0100
0010
,
1000
1000
0100
0000
,
1000
1000
0001
0010
,
0100
0100
1000
0000
,
0001
0001
1000
0010
,
1000
1000
0100
0000
,
1001
0000
1001
0000
,
0020
0000
0000
0000
,
0030
0000
0000
0000
,
0001
1000
0001
1000
,
0100
0001
0100
0001
,
0010
1000
0010
1000
,
0010
0001
0010
0001
,
1000
0000
1100
0000
,
0001
0000
0101
0000
,
0110
0000
0000
0000
,
1001
0000
1001
0000
,
0000
0001
1000
0010
,
0001
0100
1000
0000
,
0001
1000
0001
0100
,
1000
0010
0001
0000
,
1000
0000
1010
0000
,
0001
0000
0011
0000
,
0110
0000
0000
0000
,
1001
0000
1001
0000
,
0000
0010
1000
0010
,
0001
0010
0001
0010
,
0100
0010
0100
0010
,
0001
0010
1000
0010
,
0100
0001
0100
0001
,
1000
0001
1000
0001
,
1000
1000
1000
1000
,
1000
1000
1000
1000
,
1100
0000
1001
0000
,
1001
0000
0000
0000
,
0011
0000
0000
0000
,
0000
0000
0000
0000
,
0001
1000
0001
1001
,
0100
0010
0100
1001
,
0001
0100
1000
1001
,
1000
0100
0001
1001
,
1000
0001
1000
0110
,
0001
0100
0001
0110
,
1000
0010
0001
0110
,
0001
0010
1000
0110
,
2000
3000
0200
0300
,
0022
0000
0000
0033
,
1001
0000
0000
0000
,
0011
0000
0000
0000
,
0020
0000
0000
0030
,
1100
0000
0000
0000
,
0200
0000
0000
0000
,
0000
0000
0000
0300
,
0001
0001
0001
0001
,
0010
0010
0100
0100
,
1000
1001
0000
0000
;

//---------------dance-single - ----------------
#NOTES:
     dance-single:
     :
     Medium:
     11:
     0.345707,0.494037,0.293851,0.198781,0.000000,280.000000,246.000000,34.000000,23.000000,0.000000,0.000000,0.345707,0.494037,0.293851,0.198781,0.000000,280.000000,246.000000,34.000000,23.000000,0.000000,0.000000:
0000
0000
0000
0000
,
0000
0000
0000
0000
,
0000
0000
0000
0000
,
0000
0000
0000
0000
,
0000
0000
0000
0000
,
0000
0000
0000
0000
,
0000
0000
0000
0000
,
0000
0000
0000
0000
,
0000
0000
0000
0000
,
0000
0000
0000
0000
,
0000
0000
0000
0000
,
0000
0000
0000
0000
0000
0000
0100
0010
,
0001
0100
1000
0100
0010
0000
0001
1000
,
0010
0100
0001
0010
0100
0000
0000
0000
,
1000
0100
0010
1000
0001
0010
1000
0000
,
0100
0010
1000
0001
0100
0000
0000
0000
,
0100
0010
1000
0001
1000
0000
0001
1000
,
0010
0100
1000
0100
0001
0000
0000
0000
,
1000
0010
0001
1000
0001
0000
0010
0000
,
2200
0000
0000
0000
,
3300
0000
0000
0000
,
0001
1000
0001
1000
0001
0000
0001
0000
,
1000
0001
1000
0001
1000
0000
0000
0000
,
1000
0010
1000
0010
1000
0000
1000
0000
,
0001
0010
0001
0010
0001
0000
0000
0000
,
1100
0000
0100
0000
,
0101
0000
0100
0000
,
1001
0000
0000
0000
,
1001
0000
0000
0000
1001
0000
0000
1001
,
0000
0100
1000
0100
1000
0000
1000
0000
,
0001
0100
0001
0100
0001
0000
0000
0000
,
0001
1000
0001
1000
0001
0000
0001
0000
,
0100
0010
0100
0010
0100
0000
0000
0000
,
1010
0000
0010
0000
,
0011
0000
0010
0000
,
0110
0000
1001
0000
,
1001
0000
0000
0000
1001
0000
0000
1001
,
0000
0100
0001
0000
0001
0100
1000
0000
,
0100
1000
0010
0000
0010
1000
0100
0000
,
0001
0010
1000
0000
1000
0010
0001
0000
,
0100
0001
0010
0000
0010
0001
0100
0000
,
0001
1000
0100
0000
1000
0001
0100
0000
,
1000
0100
0001
0000
0001
0100
1000
0000
,
0002
1003
0002
0103
0002
1003
0002
0013
,
0002
1003
0020
1030
0200
1300
1100
0000
,
0000
1000
0100
0100
0010
0010
0001
0001
,
2002
0000
0000
0000
0000
0000
0000
3000
,
1003
0000
1000
0000
,
1001
0000
0000
0000
0000
0001
0001
0001
,
0001
1000
0001
1000
0001
0000
1001
0000
,
1000
0001
1000
0001
1000
0000
1001
0000
,
1000
0010
1000
0001
1000
0000
1001
0000
,
0001
0100
0001
1000
0001
0000
1001
0000
,
0001
0100
1000
0100
0001
0000
1001
0000
,
1000
0010
0001
0010
1000
0000
1001
0000
,
1000
0001
1000
0001
1000
0000
1001
0000
,
0001
1000
1000
0001
0100
0000
1001
0000
,
2000
0000
0000
3000
0002
0000
0000
0003
,
2200
0000
0000
3300
0022
0000
0000
0033
,
2000
0000
0000
3002
0000
0000
0000
0003
,
1001
0000
0000
0000
,
1100
0000
0000
0022
0000
0000
0000
0033
,
0011
0000
0000
0000
,
0011
0000
0000
2200
0000
0000
0000
0000
,
0000
0000
0000
0000
0000
0000
0000
3300
,
1000
0001
0001
0001
0010
1000
1000
1000
,
0001
0010
0100
1000
0001
0010
1000
0100
,
0000
1001
0000
0000
;

//---------------dance-single - ----------------
#NOTES:
     dance-single:
     :
     Hard:
     15:
     0.460531,0.849034,0.475347,0.371635,0.254959,373.000000,318.000000,55.000000,43.000000,0.000000,0.000000,0.460531,0.849034,0.475347,0.371635,0.254959,373.000000,318.000000,55.000000,43.000000,0.000000,0.000000:
0000
0000
0000
0000
,
0000
0000
0000
0000
,
0000
0000
0000
0000
,
0000
0000
0000
0000
,
0000
0000
0000
0000
,
0000
0000
0000
0000
,
0000
0000
0000
0000
,
0000
0000
0000
0000
,
0000
0000
0000
0000
,
0000
0000
0000
0000
,
0000
0000
0000
0000
,
0000
0000
0000
0000
0000
0000
0100
0010
,
0001
0000
1000
0000
0001
0000
0100
0020
0000
0000
0000
0000
0130
0000
1000
0000
,
0010
0100
0001
0010
0200
0000
0000
0000
,
1300
0000
0010
0000
0001
0000
1000
0002
0000
0000
1000
0000
2003
0000
0000
0000
,
3100
0000
0001
0000
1000
0000
0100
0000
0022
0000
0000
0000
0033
0000
1000
0001
,
0100
0000
0010
0000
1000
0000
0010
0200
0000
0000
0000
0000
0310
0000
0001
0000
,
1000
0000
0010
0000
0100
0000
0001
0200
0000
0000
0000
0000
0000
0000
0300
0000
,
1100
0100
0100
0100
0101
0000
1001
0000
,
0220
0000
0000
0000
,
0330
0000
0000
0000
,
0100
0000
0010
0000
0100
0000
0010
0000
0001
0000
0000
1000
0000
0000
0010
0000
,
0100
0000
0000
0100
0000
0000
0001
0000
2001
0000
0000
0000
3000
0000
0000
0000
,
0001
0000
1000
0000
0001
0000
0010
0000
0100
0000
0010
0100
0000
0000
0001
0000
,
1000
0000
0001
0010
0000
0000
1000
0000
1001
0000
0000
0000
0000
0000
1000
0100
,
1000
0000
1000
0001
0000
0000
0000
0000
1001
0000
0001
1000
0000
0000
0001
0000
,
0010
0000
0001
1000
0000
0000
0000
0000
1001
0000
1000
0001
0000
0000
0001
0000
,
0100
0000
1000
0002
0000
0000
0000
0000
0000
0000
0000
0000
0003
0000
0000
0000
,
1010
0000
0000
0000
0011
0000
0000
0000
1001
0000
0000
1001
0000
0000
1001
0000
,
0000
0000
1000
0000
0100
0000
0010
0000
0100
0000
0000
1010
0000
0000
1000
0000
,
0100
0000
0000
0011
0000
0000
0100
0000
2001
0000
0000
0000
0000
0000
0000
0000
,
3000
0000
0001
0000
0010
0000
0001
0000
0100
0000
0000
1100
0000
0000
0100
0000
,
0010
0000
0000
0011
0000
0000
0001
0000
2100
0000
0000
0000
3000
0000
0010
0000
,
0001
0000
1000
0001
0000
0000
0000
0000
1001
0000
0001
1000
0000
0000
0010
0000
,
0100
0000
0001
1000
0000
0000
0000
0000
1001
0000
1000
0001
0000
0000
0001
0000
,
0001
0000
0000
1001
0000
0000
2200
0000
0000
0000
0000
0000
3300
0000
0000
0000
,
0011
0000
0000
0000
1010
0000
0000
0000
1001
0000
0000
1001
0000
0000
1001
0000
,
0000
0010
0011
0000
0010
0010
1010
0000
,
0010
0010
1100
0000
0101
0010
0101
0000
,
0100
0100
1100
0000
0100
0100
0101
0000
,
0100
0100
1010
0000
0011
0100
0011
0000
,
0001
0001
1100
0000
0001
0001
0101
0000
,
0001
0001
1010
0000
0110
0001
0110
0000
,
1000
0001
1000
0001
1000
0001
1000
0001
,
0100
0001
0100
0001
0100
0001
0100
0001
,
0001
0001
0001
0001
0001
0001
0001
0001
,
0022
0000
0000
0033
,
0001
0000
0000
0001
0000
0000
0001
0000
1000
0000
0000
1000
0000
0000
1000
0000
,
2002
0000
0000
3003
1001
0100
0100
0100
,
1000
0000
1000
0000
1000
0000
0001
2000
0000
0000
0000
0000
3010
0000
0010
0000
,
0001
0000
0001
2000
0000
0000
3001
0000
0002
0000
0000
0000
0000
0000
0003
0000
,
1000
0000
1000
0000
1000
0000
0001
2000
0000
0000
3001
0000
0001
0000
0000
0000
,
0001
0000
0001
2000
0000
0000
3001
0000
0002
0000
0000
0000
0003
0000
1000
0001
,
0100
0000
0100
0000
0100
0000
0010
0200
0000
0000
0000
0000
0301
0000
0001
0000
,
0010
0000
0010
0000
0010
0000
0100
0020
0000
0000
0000
0000
0000
0000
0030
0000
,
1000
0000
1000
0000
1000
0000
0100
0010
0000
0000
0010
0000
0010
0000
0000
0000
,
0011
0110
2200
3300
,
0001
0010
0001
0020
0000
0000
1030
0100
1000
0200
0000
0000
,
0301
0001
0001
0001
0000
0000
1000
1000
1000
1000
0000
0000
,
0020
0000
0000
0200
0000
0000
0000
0330
,
0110
0000
0000
0000
1100
0000
0000
0001
0000
0000
0001
0000
0001
0000
0001
0000
,
0002
0000
0000
0023
0000
0000
0230
0000
0000
0000
0000
0000
0000
0000
0300
0000
,
1001
0000
0000
0000
,
2000
0000
0000
3100
0000
0000
0022
0000
0000
0000
0000
0000
0000
0000
0000
0000
,
0000
0000
0000
0000
0000
0000
0000
0033
,
1000
0010
1000
0000
0001
0010
0001
0000
0001
0100
1000
0000
1000
0100
0001
0000
,
0100
1000
0100
1000
0010
0100
0010
0100
0001
0010
0001
0010
0100
1000
0010
0100
,
0002
0003
2002
0000
0000
0000
3003
0000
;

//---------------dance-single - ----------------
#NOTES:
     dance-single:
     :
     Beginner:
     2:
     0.108651,0.232488,0.138283,0.000000,0.000000,88.000000,72.000000,16.000000,0.000000,0.000000,0.000000,0.108651,0.232488,0.138283,0.000000,0.000000,88.000000,72.000000,16.000000,0.000000,0.000000,0.000000:
// measure 0
0000
0000
0000
0000
,  // measure 1
0000
0000
0000
0000
,  // measure 2
0000
0000
0000
0000
,  // measure 3
0000
0000
0000
0000
,  // measure 4
0000
0000
0000
0000
,  // measure 5
0000
0000
0000
0000
,  // measure 6
0000
0000
0000
0000
,  // measure 7
0000
0000
0000
0000
,  // measure 8
0000
0000
0000
0000
,  // measure 9
0000
0000
0000
0000
,  // measure 10
0000
0000
0000
0000
,  // measure 11
0000
0000
0000
0000
,  // measure 12
0001
0000
0000
0000
,  // measure 13
1000
0000
0000
0000
,  // measure 14
1000
0000
0000
0000
,  // measure 15
0100
0000
0000
0000
,  // measure 16
0001
0000
0000
0000
,  // measure 17
1000
0000
0000
0000
,  // measure 18
1001
0000
0000
0000
,  // measure 19
0110
0000
0000
0000
,  // measure 20
0000
0000
0000
0000
,  // measure 21
0001
0000
0000
0000
,  // measure 22
0100
0000
0000
0000
,  // measure 23
0010
0000
0000
0000
,  // measure 24
0010
0000
0000
0000
,  // measure 25
1001
0000
0000
0000
,  // measure 26
0110
0000
0000
0000
,  // measure 27
1001
0000
0000
0000
,  // measure 28
0110
0000
0000
0000
,  // measure 29
0000
0000
1000
0000
,  // measure 30
0010
0000
1000
0000
,  // measure 31
0001
0000
0000
0000
,  // measure 32
1000
0000
0000
0000
,  // measure 33
0110
0000
0000
0000
,  // measure 34
1001
0000
0000
0000
,  // measure 35
0110
0000
0000
0000
,  // measure 36
1001
0000
0000
0000
,  // measure 37
0000
0010
0000
0010
,  // measure 38
0000
0001
0000
0001
,  // measure 39
0000
0010
0000
0010
,  // measure 40
0000
1000
0000
1000
,  // measure 41
0000
0010
0000
0010
,  // measure 42
0000
0100
0000
0100
,  // measure 43
0000
0000
1000
0000
,  // measure 44
1000
0000
1000
0000
,  // measure 45
0100
0000
0000
0000
,  // measure 46
0010
0000
0000
0000
,  // measure 47
0001
0000
0000
0000
,  // measure 48
0000
0000
0000
0000
,  // measure 49
0001
0000
0001
0000
,  // measure 50
1000
0000
1000
0000
,  // measure 51
0001
0000
1000
0000
,  // measure 52
0001
0000
1000
0000
,  // measure 53
0010
0000
0010
0000
,  // measure 54
0100
0000
0100
0000
,  // measure 55
0010
0000
0100
0000
,  // measure 56
0010
0000
0100
0000
,  // measure 57
1001
0000
1001
0000
,  // measure 58
1001
0000
0000
0000
,  // measure 59
0001
0000
0000
0000
,  // measure 60
1000
0000
0000
0000
,  // measure 61
0010
0000
0000
0000
,  // measure 62
1001
0000
0000
0000
,  // measure 63
0110
0000
0000
0000
,  // measure 64
0000
0000
0000
0000
,  // measure 65
0001
0000
0010
0000
,  // measure 66
0100
0000
1000
0000
,  // measure 67
0000
1001
0000
0000
;
