#VERSION:0.83;
#TITLE:真夏のInstant;
#SUBTITLE:;
#ARTIST:Peaky P-key;
#TITLETRANSLIT:;
#SUBTITLETRANSLIT:;
#ARTISTTRANSLIT:;
#GENRE:;
#ORIGIN:;
#TAGS:;
#CREDIT:;
#BANNER:Midsummer Instant.png;
#BACKGROUND:Midsummer Instant-BG.png;
#PREVIEWVID:;
#JACKET:Midsummer Instant-Jacket.png;
#CDIMAGE:;
#DISCIMAGE:;
#LYRICSPATH:;
#CDTITLE:;
#MUSIC:Midsummer Instant.ogg;
#OFFSET:-0.120000;
#SAMPLESTART:72.127968;
#SAMPLELENGTH:12.000000;
#SELECTABLE:YES;
#BPMS:0.000000=120.000000;
#STOPS:;
#DELAYS:;
#WARPS:;
#TIMESIGNATURES:0.000000=4=4;
#TICKCOUNTS:0.000000=4;
#COMBOS:0.000000=1;
#SPEEDS:0.000000=1.000000=0.000000=0;
#SCROLLS:0.000000=1.000000;
#FAKES:;
#LABELS:0.000000=Song Start;
#BGCHANGES:;
#KEYSOUNDS:;
#ATTACKS:
;

//---------------dance-single - ----------------
#NOTEDATA:;
#CHARTNAME:;
#CHARTHASH:2567878229;
#STEPSTYPE:dance-single;
#BANNER:;
#DESCRIPTION:;
#CHARTSTYLE:;
#DIFFICULTY:Easy;
#METER:3;
#METERF:3.000000;
#RADARVALUES:0.000000,0.000000,0.000000,0.000000,0.000000,0.000000,0.000000,0.000000,0.000000,0.000000,0.000000,0.000000,0.000000,0.000000,0.000000,0.000000,0.000000,0.000000,0.000000,0.000000,0.000000,0.000000,0.000000,0.000000,0.000000,0.000000,0.000000,0.000000;
#CREDIT:;
#NOTES:
0000
0000
0000
0000
,
0000
0000
0000
0000
,
0000
0000
0000
0000
,
0000
0000
0000
0000
,
0001
0000
0001
0000
,
0001
0000
1000
1000
,
1000
0000
1000
0000
,
1000
0000
1000
1000
,
0010
0000
0010
0000
,
0100
0000
0100
0000
,
0010
0010
0010
0000
,
0100
0100
0100
0000
,
0001
1000
0001
1000
,
1000
0001
1000
0001
,
1000
0000
1000
0000
,
0001
0000
0001
0000
,
0010
0010
0010
0010
,
0001
0001
0001
0001
,
0100
0100
0100
0100
,
1000
1000
1000
1000
,
0001
0000
0001
0000
,
0010
0000
0010
0000
,
1000
0000
1000
0000
,
0010
0000
0010
0000
,
1000
0000
1000
0000
,
0100
0000
0100
0000
,
0001
0000
0001
0000
,
0100
0000
0100
0000
,
0001
0001
0001
0000
,
1000
1000
1000
0000
,
0001
0010
0010
0000
,
1000
0100
0100
0000
,
0001
0100
0100
0000
,
1000
0010
0010
0000
,
0001
1000
0001
1000
,
0110
0000
0000
0000
,
1000
0001
1000
0000
,
1000
0010
1000
0000
,
0001
1000
0001
0000
,
0001
0100
0001
0000
,
1000
0100
1000
0000
,
1000
0010
1000
0000
,
0001
0100
0001
0000
,
0001
0010
0001
0000
,
1000
1000
1000
0000
,
0001
0000
0001
0000
,
0001
0001
0001
0000
,
1000
0000
1000
0000
,
0100
0100
0100
0000
,
1000
0000
1000
0000
,
0010
0010
0010
0000
,
0001
0000
0001
0000
,
2002
0000
3003
0000
;

//---------------dance-single - ----------------
#NOTEDATA:;
#CHARTNAME:;
#CHARTHASH:3362482067;
#STEPSTYPE:dance-single;
#BANNER:;
#DESCRIPTION:;
#CHARTSTYLE:;
#DIFFICULTY:Medium;
#METER:8;
#METERF:8.000000;
#RADARVALUES:0.000000,0.000000,0.000000,0.000000,0.000000,0.000000,0.000000,0.000000,0.000000,0.000000,0.000000,0.000000,0.000000,0.000000,0.000000,0.000000,0.000000,0.000000,0.000000,0.000000,0.000000,0.000000,0.000000,0.000000,0.000000,0.000000,0.000000,0.000000;
#CREDIT:;
#NOTES:
0000
0000
0000
0000
,
0000
0000
0000
0000
,
0000
0000
0000
0000
,
0000
0000
0000
0000
,
0010
0000
0001
0000
0010
0000
1000
0200
,
0000
0000
0000
0300
,
0010
0000
1000
0000
0010
0000
0001
0200
,
0000
0000
0000
0300
,
0100
0000
0010
0000
0100
0000
0001
1000
,
0100
0000
0010
0000
0100
0000
1000
0001
,
0010
0000
1000
0000
0010
0000
0001
1000
,
0100
0000
0001
0000
0100
0000
1000
0001
,
1000
0100
1000
0000
0001
0100
0001
0000
,
1000
0001
1000
0000
0010
0000
0010
0000
,
0001
0010
0001
0000
1000
0010
1000
0000
,
0001
1000
0001
0110
,
0022
0000
0000
0000
,
0000
0033
0001
0010
,
1000
2200
0000
0000
,
0000
0000
3300
0000
,
0011
0000
1100
0000
,
0010
0010
0010
0010
,
1010
0000
0101
0000
,
0100
0100
0100
0100
,
0001
0010
1000
0011
,
0100
0100
0100
0100
,
1000
0010
0001
1100
,
0010
0010
0010
0010
,
0010
0001
0010
0001
0010
0001
0010
0000
0000
0000
0000
0000
,
0100
1000
0100
1000
0100
1000
0100
0000
0000
0000
0000
0000
,
0001
0010
0001
0010
0000
0000
1000
0100
1000
0100
0000
0000
,
0100
0100
1001
0000
,
1000
0011
0001
1010
,
1000
0101
0001
1100
,
1000
1000
0100
0100
0010
0010
0001
0001
,
0110
0000
0000
0000
,
1000
0010
1000
0001
0010
0001
0010
0100
,
0001
0100
0001
1000
0100
1000
0100
0010
,
0001
0010
0001
1000
0010
1000
0010
0100
,
1000
0100
1000
0001
0100
0001
0100
0010
,
1000
0100
0001
0100
0001
0100
1000
0100
,
1000
0010
0001
0010
0001
0010
1000
0010
,
1000
0010
0001
0100
0001
0010
1000
0100
,
0010
1000
0100
0001
0100
1000
0010
0001
,
1000
0000
1000
0000
0001
0100
1000
0000
,
0001
0000
0001
0000
1000
0100
0001
0000
,
0100
0000
0100
0000
1000
0100
0001
0000
,
0010
0000
0010
0000
0001
0100
1000
0000
,
0001
0000
0001
0000
1000
0100
0001
0100
,
1000
0000
1000
0000
0001
0100
1000
0100
,
0001
0010
0100
0000
1000
0100
0010
0000
,
1000
0010
0001
0010
1000
0100
0001
0100
,
2002
0000
0000
0000
,
0000
0000
0000
0000
,
0000
0000
3003
0000
;

//---------------dance-single - ----------------
#NOTEDATA:;
#CHARTNAME:;
#CHARTHASH:3318239386;
#STEPSTYPE:dance-single;
#BANNER:;
#DESCRIPTION:;
#CHARTSTYLE:;
#DIFFICULTY:Hard;
#METER:13;
#METERF:13.000000;
#RADARVALUES:0.000000,0.000000,0.000000,0.000000,0.000000,0.000000,0.000000,0.000000,0.000000,0.000000,0.000000,0.000000,0.000000,0.000000,0.000000,0.000000,0.000000,0.000000,0.000000,0.000000,0.000000,0.000000,0.000000,0.000000,0.000000,0.000000,0.000000,0.000000;
#CREDIT:;
#NOTES:
0000
0000
0000
0000
,
0000
0000
0000
0000
,
0000
0000
0000
0000
,
0000
0000
0000
0000
,
0010
0000
0000
0010
0100
0000
0000
0100
,
0010
0000
0000
0100
0010
0001
1000
0010
,
0100
0000
0000
1000
0001
0000
0000
0001
,
1000
0000
0000
0100
0010
0001
1000
0100
,
0020
0000
0130
0100
0010
0100
0001
0010
,
0000
1100
0000
0011
0000
0000
0001
1000
,
0200
0000
0301
1000
0010
0001
0100
0010
,
0001
0010
0000
1001
0000
0010
1000
0100
,
0010
1000
0200
0000
1300
0001
0010
0100
,
0000
0100
0000
0001
0100
1000
1000
0001
,
0010
1000
0000
0001
1000
0000
0001
0011
,
0000
1000
0010
0000
0110
0000
1010
0000
,
0021
0001
1000
1000
,
0100
0000
0130
0010
1100
0000
0101
0000
,
1100
0000
0000
0000
0022
0000
0000
0000
0000
0000
0000
0000
0000
0000
0000
0000
0000
0000
0033
0000
0000
1001
0000
0000
,
0000
1000
1000
0000
0001
0010
0001
0010
,
1100
0000
0010
0000
0100
0000
0001
0001
,
0000
0000
0101
0000
0000
1100
0000
0000
0101
0000
0000
0000
0100
0000
0001
0000
,
0100
0000
0100
0000
0001
0000
1000
0001
,
0000
0000
0101
0000
0000
0011
0000
0000
0101
0000
0000
0000
0010
0000
0010
0000
,
0001
0000
0100
0000
0001
0000
0010
0010
,
0000
0000
0011
0000
0000
1010
0000
0000
0011
0000
0000
0000
0100
0000
1000
0000
,
0100
0001
0100
0002
0000
0013
0000
0100
,
0100
0000
0000
1100
0000
0000
1001
0000
0000
0001
0000
1000
,
0001
0001
0001
1000
1000
1000
0101
0000
0000
1000
0000
0001
,
1000
1000
1000
0001
0001
0001
1100
0000
0000
0000
0010
0100
,
0001
1000
0001
1000
0000
0000
1000
0001
1000
0001
0000
0000
,
0020
0000
0000
0000
0130
0000
0001
1000
0000
0000
0000
0000
0000
0000
0010
0100
,
0001
0000
0100
1000
0000
0000
0010
0100
1000
0000
0100
0001
0000
0000
0010
0100
,
0001
0000
1000
0001
0000
0000
0110
0000
1001
0000
0100
0100
0000
0000
1000
0100
,
0011
0000
0001
0100
1010
0000
1000
0010
0001
1000
0002
0000
0000
0000
0000
0000
,
0013
0000
0000
0000
0100
0000
0001
0000
0010
0000
0001
2000
0000
0000
3000
0000
,
2010
0000
0001
0000
3010
0000
0000
0000
0011
0000
0000
1010
0000
0000
0011
0000
,
0000
1002
0100
1003
0000
2001
0100
3001
,
1020
0000
0100
0000
1030
0000
0000
0000
0101
0000
0000
1100
0000
0000
0101
0000
,
0000
0210
0001
0310
0000
0120
0001
0130
,
0102
0000
1000
0000
0103
0000
0000
0000
1010
0000
0000
1100
0000
0000
1010
0000
,
0000
2001
0010
3001
0000
1002
0010
1003
,
0201
0000
0010
0000
0301
0000
0000
0000
0011
0000
0000
0101
0000
0000
0011
0000
,
0000
2100
0010
3001
0000
0012
0100
1003
,
0011
0000
1010
0000
0010
1000
0001
2000
,
0000
0010
0000
0010
3000
0010
0001
1000
,
1010
0000
1100
0000
0100
0001
1000
0002
,
0000
0100
0000
0100
0003
0100
0100
0100
,
1100
0000
0101
0000
0010
1000
0001
2000
,
0000
0010
0000
0010
3001
1000
0001
2200
,
0000
0000
3300
0001
0002
0000
1003
0100
,
0000
0100
0101
0000
0010
0100
0010
0200
,
0000
0000
0000
0020
0000
0000
0000
0000
,
0000
0000
0000
0000
,
0000
0000
0330
0000
;

//---------------dance-single - ----------------
#NOTEDATA:;
#CHARTNAME:;
#CHARTHASH:3499168672;
#STEPSTYPE:dance-single;
#BANNER:;
#DESCRIPTION:;
#CHARTSTYLE:;
#DIFFICULTY:Beginner;
#METER:2;
#METERF:2.000000;
#RADARVALUES:0.100702,0.135761,0.034810,0.000000,0.000000,81.000000,77.000000,4.000000,0.000000,0.000000,0.000000,0.000000,0.000000,0.000000,0.100702,0.135761,0.034810,0.000000,0.000000,81.000000,77.000000,4.000000,0.000000,0.000000,0.000000,0.000000,0.000000,0.000000;
#CREDIT:;
#NOTES:
// measure 0
0000
0000
0000
0000
,  // measure 1
0000
0000
0000
0000
,  // measure 2
0000
0000
0000
0000
,  // measure 3
0000
0000
0000
0000
,  // measure 4
0100
0000
0000
0000
,  // measure 5
0100
0000
0000
0000
,  // measure 6
1000
0000
0000
0000
,  // measure 7
1000
0000
0000
0000
,  // measure 8
0001
0000
0000
0000
,  // measure 9
0001
0000
0000
0000
,  // measure 10
0001
0000
0000
0000
,  // measure 11
0001
0000
0000
0000
,  // measure 12
0010
0000
0000
0000
,  // measure 13
0010
0000
0000
0000
,  // measure 14
0010
0000
0000
0000
,  // measure 15
0010
0000
0000
0000
,  // measure 16
0001
0000
0001
0000
,  // measure 17
0001
0000
0001
0000
,  // measure 18
0010
0000
0010
0000
,  // measure 19
0010
0000
0010
0000
,  // measure 20
1001
0000
0000
0000
,  // measure 21
0000
0000
0000
0000
,  // measure 22
1001
0000
0000
0000
,  // measure 23
0000
0000
0000
0000
,  // measure 24
0001
0000
0001
0000
,  // measure 25
0010
0000
0010
0000
,  // measure 26
0100
0000
0100
0000
,  // measure 27
1000
0000
1000
0000
,  // measure 28
0001
0000
0001
0000
,  // measure 29
1000
0000
1000
0000
,  // measure 30
0001
0000
0001
0000
,  // measure 31
1000
0000
1000
0000
,  // measure 32
0010
0000
0010
0000
,  // measure 33
0100
0000
0100
0000
,  // measure 34
1001
0000
0000
0000
,  // measure 35
0010
0000
0000
0000
,  // measure 36
0001
0000
0001
0000
,  // measure 37
0001
0000
0001
0000
,  // measure 38
1000
0000
1000
0000
,  // measure 39
0001
0000
0001
0000
,  // measure 40
0100
0000
0100
0000
,  // measure 41
0001
0000
0001
0000
,  // measure 42
0010
0000
0010
0000
,  // measure 43
0001
0000
0001
0000
,  // measure 44
1000
0000
1000
0000
,  // measure 45
0001
0000
0001
0000
,  // measure 46
0010
0000
0010
0000
,  // measure 47
0100
0000
0100
0000
,  // measure 48
0010
0000
0010
0000
,  // measure 49
0001
0000
0001
0000
,  // measure 50
0100
0000
0100
0000
,  // measure 51
1000
0000
1000
0000
,  // measure 52
1001
0000
0000
0000
;
