#VERSION:0.83;
#TITLE:Maihime;
#SUBTITLE:;
#ARTIST:Lyrical Lily;
#TITLETRANSLIT:;
#SUBTITLETRANSLIT:;
#ARTISTTRANSLIT:;
#GENRE:;
#ORIGIN:;
#TAGS:;
#CREDIT:;
#BANNER:GridArt_20230426_060226516.jpg;
#BACKGROUND:BG.jpg;
#PREVIEWVID:;
#JACKET:1000.jpeg;
#CDIMAGE:;
#DISCIMAGE:;
#LYRICSPATH:;
#CDTITLE:;
#MUSIC:Maihime.ogg;
#OFFSET:-0.160000;
#SAMPLESTART:15.005017;
#SAMPLELENGTH:12.000000;
#SELECTABLE:YES;
#BPMS:0.000000=130.500000;
#STOPS:;
#DELAYS:;
#WARPS:;
#TIMESIGNATURES:0.000000=4=4;
#TICKCOUNTS:0.000000=4;
#COMBOS:0.000000=1;
#SPEEDS:0.000000=1.000000=0.000000=0;
#SCROLLS:0.000000=1.000000;
#FAKES:;
#LABELS:0.000000=Song Start;
#BGCHANGES:;
#KEYSOUNDS:;
#ATTACKS:
;

//---------------dance-single - ----------------
#NOTEDATA:;
#CHARTNAME:;
#CHARTHASH:4246732800;
#STEPSTYPE:dance-single;
#BANNER:;
#DESCRIPTION:;
#CHARTSTYLE:;
#DIFFICULTY:Easy;
#METER:4;
#METERF:4.000000;
#RADARVALUES:0.174630,0.228660,0.034678,0.000000,0.000000,141.000000,137.000000,4.000000,0.000000,0.000000,0.000000,0.000000,0.000000,0.000000,0.174630,0.228660,0.034678,0.000000,0.000000,141.000000,137.000000,4.000000,0.000000,0.000000,0.000000,0.000000,0.000000,0.000000;
#CREDIT:;
#NOTES:
0000
0000
0000
0000
,
0000
0000
0000
0000
,
0000
0000
0000
0000
,
0000
0000
0000
0000
,
0000
0000
0000
0000
,
0000
0000
0000
0000
,
0000
0000
0000
0000
,
0000
0000
0000
0000
,
0000
0000
0000
0001
,
1000
0010
1000
0010
,
1000
0010
1000
0100
,
1000
0100
1000
0100
,
1000
0100
1000
1000
,
0100
0001
0100
0001
,
0100
0001
0100
0001
,
0010
0001
0010
0001
,
0010
0001
0010
0000
,
0010
0000
0010
0000
,
0010
0000
0010
0000
,
0100
0000
0100
0000
,
0100
0000
0100
0000
,
0010
0000
0010
0000
,
0010
0000
0010
0001
,
1000
0000
1000
0000
,
1000
0000
1000
0001
,
0001
0000
0000
1000
,
1000
0000
0000
0001
,
0001
0000
0000
0100
,
0100
0000
0000
1000
,
1000
0000
0000
0001
,
0001
0000
0000
0010
,
0010
0010
0010
0010
,
0000
0000
0000
1001
,
1000
0100
1000
0100
,
1000
0100
1000
0001
,
0010
0001
0010
0001
,
0010
0001
0010
1000
,
0010
1000
0010
1000
,
0010
1000
0010
0001
,
0100
0001
0100
0001
,
0100
0001
0100
0001
,
0001
0001
0000
1000
,
1000
1000
0000
0001
,
1000
0001
0000
1000
,
0001
1000
0000
0010
,
0100
0010
0100
1000
,
0001
1000
0001
1000
,
1000
0100
0100
0011
,
0000
0000
0000
0100
,
0010
0100
0010
0001
,
1000
0001
1000
0010
,
0010
0001
0001
1100
,
0000
0000
0000
1001
;

//---------------dance-single - ----------------
#NOTEDATA:;
#CHARTNAME:;
#CHARTHASH:671474334;
#STEPSTYPE:dance-single;
#BANNER:;
#DESCRIPTION:;
#CHARTSTYLE:;
#DIFFICULTY:Medium;
#METER:9;
#METERF:9.000000;
#RADARVALUES:0.320774,0.388722,0.017339,0.052017,0.000000,259.000000,257.000000,2.000000,6.000000,0.000000,0.000000,0.000000,0.000000,0.000000,0.320774,0.388722,0.017339,0.052017,0.000000,259.000000,257.000000,2.000000,6.000000,0.000000,0.000000,0.000000,0.000000,0.000000;
#CREDIT:;
#NOTES:
0000
0000
0000
0000
,
0000
0000
0000
0000
,
0000
0000
0000
0000
,
0000
0000
0000
0000
,
0000
0000
0000
0000
,
0000
0000
0000
0000
,
0000
0000
0000
0000
,
0000
0000
0000
0000
,
0000
1000
0100
1000
0010
0001
0010
0000
,
0001
0010
0001
0010
0001
0010
0001
0010
,
0001
0010
0001
0010
0001
0010
1000
0100
,
1000
0100
1000
0100
1000
0100
1000
0100
,
1000
0100
1000
0100
1000
0100
0010
0000
,
1000
0010
1000
0010
1000
0010
1000
0010
,
1000
0010
1000
0010
1000
0010
0001
0100
,
0001
0100
0001
0100
0001
0100
0001
0100
,
0001
0100
0001
0100
0001
0100
0001
0000
,
0001
0000
1000
0100
1000
0000
0001
0100
,
0001
0100
0100
1000
,
1000
0000
0001
0010
0001
0000
1000
0010
,
1000
0010
0010
0001
,
0001
0000
1000
0001
1000
0000
0001
1000
,
0001
0100
0100
0010
,
0010
0000
0100
0010
0100
0000
0010
0100
,
0010
0001
1000
1000
,
1000
0000
0000
0100
0000
0100
0010
0000
,
0000
0100
0000
0000
0000
0000
1000
0000
,
0000
0001
0000
0001
0001
0020
0000
0000
,
0030
0010
0100
0010
,
0010
0000
0000
0001
0000
0001
0000
0000
,
0000
0200
0000
0000
0000
0020
0000
0000
,
0000
0000
0330
0001
0001
1000
0000
0000
,
0000
0010
0001
0100
0010
1000
0100
0000
,
1000
0100
1000
0100
0001
0100
0001
0100
,
1000
0001
1000
0001
1000
0001
0010
1000
,
0010
1000
0010
0001
0010
0001
0010
0100
,
0010
0100
0010
0100
0010
0100
0001
0100
,
0001
0100
1000
0100
1000
0100
0001
1000
,
0001
1000
0001
1000
0001
1000
0001
0000
,
0010
0001
0100
1000
,
0010
0000
0100
0100
1000
1000
0010
0000
,
0100
1000
0100
1000
0100
1000
0100
0001
,
0100
0001
1000
0100
1000
0100
0010
0001
,
0010
0001
0010
1000
0010
1000
0001
0010
,
0001
0010
0001
0010
0001
0010
1000
0000
,
1000
0001
0001
1000
,
0100
0000
0001
0000
0010
0000
0100
0100
,
0100
0100
0100
0100
0100
0110
0000
0000
,
0000
0001
0001
0002
0000
0000
1003
0000
,
0100
0010
0001
0100
,
1000
0000
0010
0000
0001
0000
0010
0010
,
0010
0010
0010
0010
0010
0220
0000
0000
,
0000
0000
0000
0330
;

//---------------dance-single - ----------------
#NOTEDATA:;
#CHARTNAME:;
#CHARTHASH:3503612914;
#STEPSTYPE:dance-single;
#BANNER:;
#DESCRIPTION:;
#CHARTSTYLE:;
#DIFFICULTY:Hard;
#METER:13;
#METERF:13.000000;
#RADARVALUES:0.429763,0.500342,0.329444,0.104035,0.125709,347.000000,309.000000,38.000000,12.000000,0.000000,0.000000,0.000000,0.000000,0.000000,0.429763,0.500342,0.329444,0.104035,0.125709,347.000000,309.000000,38.000000,12.000000,0.000000,0.000000,0.000000,0.000000,0.000000;
#CREDIT:;
#NOTES:
0000
0000
0000
0000
,
0000
0000
0000
0000
,
0000
0000
0000
0000
,
0000
0000
0000
0000
,
0000
0000
0000
0000
,
0000
0000
0000
0000
,
0000
0000
0000
0000
,
0000
0000
0000
1001
,
0000
0010
0001
0100
0001
0010
0100
0000
,
1000
0100
1000
0010
1000
0001
1000
0010
,
1000
0100
1000
0010
1000
0001
1000
0010
,
1000
0100
1000
0010
1000
0001
1000
0010
,
1000
0100
1000
0010
1000
0001
0010
0000
,
0001
0010
0001
0100
0001
1000
0001
0100
,
0001
0010
0001
0100
0001
1000
0001
0100
,
0001
0010
0001
0100
0001
1000
0001
0100
,
0001
0010
0001
0100
0001
1000
0000
0000
,
0100
0100
1000
0010
1000
0000
0001
0010
,
0001
0000
0000
0000
1010
0000
0000
0011
0000
0000
1001
0000
0000
0000
0000
0000
,
0010
0010
1000
0100
1000
0000
0001
0100
,
0001
0000
0000
0000
0011
0000
0000
1010
0000
0000
0110
0000
0000
0000
0000
0000
,
0010
0010
0100
0001
0100
0000
0100
1000
,
0100
0000
0000
0000
0101
0000
0000
1100
0000
0000
0110
0000
0100
0000
0000
0000
,
0100
0000
1000
0010
1000
0000
0001
0010
,
0001
0010
0100
1000
0010
0001
1000
0000
,
0101
0000
0000
0001
0000
1100
0000
0001
,
0100
0000
0001
0000
0100
0000
0000
0010
0000
0000
1000
0000
0100
0000
0000
0010
,
0000
1000
0000
0001
0001
2000
0000
0000
,
3000
1000
0100
0010
0100
0001
0001
0000
,
1100
0000
0000
1000
0000
0101
0000
0000
,
0000
0000
0010
0000
0010
0000
0000
0001
0000
0000
0220
0000
0000
0000
0000
0000
,
0000
0000
0000
0000
0330
0000
0100
0000
0100
0000
1001
0000
1000
1000
0000
0001
,
0000
0001
0010
0100
0010
1000
0011
0000
,
0001
0000
1000
0000
0001
0000
0000
1100
0000
0000
0001
0000
1000
0000
0000
0101
,
0000
0000
0010
0000
0100
0000
0000
1001
0000
0000
0001
0000
1010
0000
0000
0000
,
0010
0000
0100
0000
0010
0000
0000
1100
0000
0000
0010
0000
0100
0000
0000
1010
,
0000
0000
1000
0000
0100
0000
0000
0011
0000
0000
0100
0000
0100
0000
0000
0000
,
1000
0000
0100
0000
1000
0000
0000
0011
0000
0000
0001
0000
0100
0000
0000
1010
,
0000
0000
0100
0000
0010
0000
0000
1001
0000
0000
0000
0000
2000
0000
0000
0000
,
3010
0000
0100
0010
0100
1000
0001
1000
,
0010
0001
1000
0010
0100
1000
1001
0000
,
1000
0000
0100
0000
0010
0000
0000
1100
0000
0000
0010
0000
0100
0000
0000
0101
,
0000
0000
1000
0000
0001
0000
0000
1001
0000
0000
1000
0000
0001
0000
0000
0000
,
0001
0000
0010
0000
0100
0000
0000
0011
0000
0000
1000
0000
0001
0000
0000
1010
,
0000
0000
0001
0000
1000
0000
0000
0110
0000
0000
1001
0000
0000
0000
0000
0000
,
1000
0010
0001
0010
0001
0010
1000
0100
,
1000
0100
0001
0100
0001
0100
1000
1000
,
0001
0001
0010
0010
0100
0110
0000
0000
,
0000
0001
0002
2003
0000
3000
1000
0010
,
1000
0010
1000
0100
1000
0100
0001
0010
,
0001
0010
0001
0100
0001
0100
0010
0010
,
0100
0100
0001
1000
1001
2002
0000
0000
,
0000
0000
0000
0000
0000
0000
0000
0000
0000
0000
3003
0000
0001
0000
0000
0001
,
0000
0000
0001
0000
0000
0000
0001
0000
0010
0000
0001
0000
0010
0000
0000
0010
,
0000
0000
0020
0000
0000
0000
0000
0000
0000
0000
0000
0000
0130
0000
0000
0100
,
0000
0000
0100
0000
0000
0000
0100
0000
1000
0000
0100
0000
1000
0000
0000
1000
,
0000
0000
2000
0000
0000
0000
0000
0000
0000
0000
0000
0000
3001
0000
0000
0001
,
0000
0000
0001
0000
0000
0000
0001
0000
0010
0000
0001
0000
0010
0000
0000
0010
,
0000
0010
0000
0020
0000
0000
1030
0000
,
1000
1000
1000
0200
,
0000
0000
0000
0300
;

//---------------dance-single - ----------------
#NOTEDATA:;
#CHARTNAME:;
#CHARTHASH:3623200220;
#STEPSTYPE:dance-single;
#BANNER:;
#DESCRIPTION:;
#CHARTSTYLE:;
#DIFFICULTY:Beginner;
#METER:1;
#METERF:0.000000;
#RADARVALUES:0.050779,0.114330,0.017339,0.000000,0.000000,41.000000,39.000000,2.000000,0.000000,0.000000,0.000000,0.000000,0.000000,0.000000,0.050779,0.114330,0.017339,0.000000,0.000000,41.000000,39.000000,2.000000,0.000000,0.000000,0.000000,0.000000,0.000000,0.000000;
#CREDIT:;
#NOTES:
// measure 0
0000
0000
0000
0000
,  // measure 1
0000
0000
0000
0000
,  // measure 2
0000
0000
0000
0000
,  // measure 3
0000
0000
0000
0000
,  // measure 4
0000
0000
0000
0000
,  // measure 5
0000
0000
0000
0000
,  // measure 6
0000
0000
0000
0000
,  // measure 7
0000
0000
0000
0000
,  // measure 8
0000
0000
0000
0001
,  // measure 9
0000
0000
0000
0000
,  // measure 10
0000
0000
0000
0001
,  // measure 11
0000
0000
0000
0000
,  // measure 12
0000
0000
0000
1000
,  // measure 13
0000
0000
0000
0000
,  // measure 14
0000
0000
0000
1000
,  // measure 15
0000
0000
0000
0000
,  // measure 16
0000
0000
0000
0000
,  // measure 17
0010
0000
0000
0000
,  // measure 18
0000
0000
0000
0010
,  // measure 19
0000
0000
0000
0000
,  // measure 20
0000
0000
0000
0000
,  // measure 21
0100
0000
0000
0000
,  // measure 22
0000
0000
0000
0100
,  // measure 23
0000
0000
0000
0000
,  // measure 24
0000
0000
0000
0001
,  // measure 25
0000
0000
0000
0000
,  // measure 26
0000
0000
0000
1000
,  // measure 27
0000
0000
0000
0000
,  // measure 28
0000
0000
0000
0001
,  // measure 29
0000
0000
0000
0001
,  // measure 30
0000
0000
0000
0010
,  // measure 31
0000
0000
0000
0010
,  // measure 32
0000
0000
0000
1000
,  // measure 33
0000
0000
0000
0001
,  // measure 34
0000
0000
0000
1000
,  // measure 35
0000
0000
0000
0001
,  // measure 36
0000
0000
0000
0001
,  // measure 37
0000
0000
0000
1000
,  // measure 38
0000
0000
0000
0001
,  // measure 39
0000
0000
0000
1000
,  // measure 40
0000
0000
0000
0010
,  // measure 41
0000
0000
0000
0010
,  // measure 42
0000
0000
0000
0100
,  // measure 43
0000
0000
0000
0100
,  // measure 44
0000
0000
0000
0001
,  // measure 45
0000
0000
0000
0010
,  // measure 46
0000
0000
0000
0001
,  // measure 47
0000
0001
0000
0110
,  // measure 48
0000
0000
0000
0100
,  // measure 49
0000
0100
0000
1000
,  // measure 50
0000
1000
0000
0001
,  // measure 51
0000
1000
0000
0001
,  // measure 52
0000
0000
0000
1001
;
