#VERSION:0.83;
#TITLE:LOVE BITE;
#SUBTITLE:;
#ARTIST:Merm4id;
#TITLETRANSLIT:;
#SUBTITLETRANSLIT:;
#ARTISTTRANSLIT:;
#GENRE:;
#ORIGIN:;
#TAGS:;
#CREDIT:;
#BANNER:LOVE BITE-Banner.png;
#BACKGROUND:LOVE BITE-BG.png;
#PREVIEWVID:;
#JACKET:LOVE BITE-jacket.png;
#CDIMAGE:;
#DISCIMAGE:;
#LYRICSPATH:;
#CDTITLE:;
#MUSIC:audio.ogg;
#OFFSET:1.100000;
#SAMPLESTART:53.267994;
#SAMPLELENGTH:12.000000;
#SELECTABLE:YES;
#DISPLAYBPM:160.000000;
#BPMS:0.000000=160.000000,
105.000000=80.000000,
113.000000=160.000000;
#STOPS:;
#DELAYS:;
#WARPS:;
#TIMESIGNATURES:0.000000=4=4;
#TICKCOUNTS:0.000000=4;
#COMBOS:0.000000=1;
#SPEEDS:0.000000=1.000000=0.000000=0;
#SCROLLS:0.000000=1.000000;
#FAKES:;
#LABELS:0.000000=Song Start;
#BGCHANGES:3.000=LOVE BITE.mp4=1.000=1=0=0=StretchNoLoop==CrossFade==,
99999.000=-nosongbg-=1.000=0=0=0=StretchNoLoop====,
99999=-nosongbg-=1.000=0=0=0 // don't automatically add -songbackground-
;
#KEYSOUNDS:;
#ATTACKS:
;

//---------------dance-single - ----------------
#NOTEDATA:;
#CHARTNAME:;
#CHARTHASH:1191182335;
#STEPSTYPE:dance-single;
#BANNER:;
#DESCRIPTION:;
#CHARTSTYLE:;
#DIFFICULTY:Beginner;
#METER:1;
#METERF:0.000000;
#RADARVALUES:0.100726,0.186677,0.169899,0.000000,0.000000,83.000000,63.000000,20.000000,0.000000,0.000000,0.000000,0.000000,0.000000,0.000000,0.100726,0.186677,0.169899,0.000000,0.000000,83.000000,63.000000,20.000000,0.000000,0.000000,0.000000,0.000000,0.000000,0.000000;
#CREDIT:;
#DISPLAYBPM:160.000000;
#NOTES:
0000
0000
0000
0000
,
0000
0000
0000
0000
,
0000
0000
0000
0000
,
0000
0000
0000
0000
,
0000
0000
0000
0000
,
0000
0000
0000
0000
,
0000
0000
0000
0000
,
0000
0000
0000
0000
,
0000
0000
0000
0000
,
0000
0000
0000
0000
,
0000
1000
0000
0000
,
0000
0001
0000
0000
,
0000
0001
0000
0000
,
0000
1000
0000
0000
,
0000
0100
0000
0000
,
0000
0010
0000
0000
,
0000
0010
0000
0000
,
0000
1001
0000
0000
,
0000
1000
0000
0000
,
0000
0001
0000
0000
,
0000
0100
0000
0000
,
0000
0010
0000
0000
,
0000
0001
0000
0000
,
0000
1000
0000
0000
,
0000
1000
0000
0000
,
0000
0010
0000
0000
,
0000
0001
0000
0001
,
0000
1000
0000
1000
,
0000
1001
0000
0000
,
0000
1100
0000
0000
,
0000
0011
0000
0000
,
0000
0110
0000
0000
,
0000
1001
0000
0000
,
0000
0000
0000
0000
,
0000
1000
0000
0000
,
0000
0100
0000
0000
,
0000
0010
0000
0000
,
0000
0001
0000
0000
,
0000
0001
0000
0000
,
0000
0010
0000
0000
,
0000
0100
0000
0000
,
0000
1000
0000
0000
,
0000
1001
0000
0000
,
0000
0110
0000
0000
,
0000
0110
0000
0000
,
0000
1001
0000
0000
,
0000
0100
0000
0000
,
0000
0100
0000
0000
,
0000
0100
0000
0000
,
0000
0100
0000
0000
,
0000
0010
0000
0000
,
0000
0010
0000
0000
,
0000
0010
0000
0000
,
0000
0010
0000
0000
,
0000
1000
0000
0000
,
0000
0001
0000
0000
,
0000
0010
0000
0000
,
0000
0010
0000
0000
,
0000
1100
0000
0000
,
0000
0110
0000
0000
,
0000
0011
0000
0000
,
0000
1001
0000
0000
,
0000
1000
0000
0000
,
0000
0010
0000
0000
,
0000
0100
0000
0000
,
0000
0001
0000
0000
,
0000
1001
0000
0000
,
0000
0000
0000
0000
,
0000
1001
0000
0000
,
0000
0000
0000
0000
,
0000
1100
0000
0000
,
0000
0110
0000
0000
,
0000
0011
0000
0000
,
0000
1001
0000
0000
;

//---------------dance-single - ----------------
#NOTEDATA:;
#CHARTNAME:;
#CHARTHASH:16777215;
#STEPSTYPE:dance-single;
#BANNER:;
#DESCRIPTION:;
#CHARTSTYLE:;
#DIFFICULTY:Easy;
#METER:5;
#METERF:0.000000;
#RADARVALUES:0.224509,0.311128,0.220869,0.067960,0.000000,185.000000,159.000000,26.000000,8.000000,0.000000,0.000000,0.000000,0.000000,0.000000,0.224509,0.311128,0.220869,0.067960,0.000000,185.000000,159.000000,26.000000,8.000000,0.000000,0.000000,0.000000,0.000000,0.000000;
#CREDIT:;
#DISPLAYBPM:160.000000;
#NOTES:
0000
0000
0000
0000
,
0000
0000
0000
0000
,
0000
0000
0000
0000
,
0000
0000
0000
0000
,
0000
0000
0000
0000
,
0000
0000
0000
0000
,
0000
0000
0000
0000
,
0000
0000
0000
0000
,
0000
0000
0000
0000
,
0000
0000
0000
0000
,
0000
1000
0000
1000
,
0000
1000
0001
1000
,
0000
0001
0000
0001
,
0000
0001
1000
0001
,
0000
0100
0000
0100
,
0000
0100
0010
0100
,
0000
0010
0100
0010
,
0000
1001
0000
0000
,
0000
1000
0001
1000
,
0000
0001
1000
0001
,
0000
0100
0010
0100
,
0000
0010
0100
0010
,
0000
1000
0001
1000
,
0000
0001
0100
0001
,
0000
0001
0010
0001
,
0000
1000
0100
0010
,
0001
0002
1003
0002
,
0103
2000
3010
2000
,
3001
1001
0000
1001
,
0000
1100
0000
1100
,
0000
0011
0000
0011
,
0000
0220
0000
0000
,
0330
1001
0000
0000
,
0000
0000
0000
0000
,
0000
1000
1000
0001
,
0000
0100
0100
0001
,
0000
0010
0010
0001
,
0000
0001
1000
0001
,
0000
0001
0001
1000
,
0000
0010
0010
1000
,
0000
0100
0100
1000
,
0000
1000
0001
1000
,
0000
1000
1001
0000
,
0000
0100
0110
0000
,
0000
0010
0110
0000
,
0000
0001
0001
1001
,
0000
0100
0100
0010
,
0000
0100
0100
0001
,
0000
0100
0010
0100
,
0000
0100
0100
1000
,
0000
0010
0010
0100
,
0000
0010
0010
1000
,
0000
0010
0100
0010
,
0000
0010
0010
0001
,
0000
1000
0001
1000
,
0000
0001
1000
0001
,
0000
1000
0010
1000
,
0000
0001
0010
0001
,
0000
1000
1100
0000
,
0000
0100
0110
0000
,
0000
0010
0011
0000
,
0000
0001
0001
1001
,
0000
1000
1000
0100
,
0000
0010
0010
0001
,
0000
0100
0100
1000
,
0000
0010
0010
0001
,
0000
2002
0000
0000
,
3003
0000
0000
0000
,
0000
1001
0000
0000
,
0000
0000
0000
0000
,
0000
1100
0000
1100
,
0000
0110
0000
0110
,
0000
0011
0000
0011
,
0000
1001
0000
0000
;

//---------------dance-single - ----------------
#NOTEDATA:;
#CHARTNAME:;
#CHARTHASH:289481035;
#STEPSTYPE:dance-single;
#BANNER:;
#DESCRIPTION:;
#CHARTSTYLE:;
#DIFFICULTY:Medium;
#METER:12;
#METERF:0.000000;
#RADARVALUES:0.382273,0.691489,0.365283,0.076455,0.140167,315.000000,272.000000,43.000000,9.000000,0.000000,0.000000,0.000000,0.000000,0.000000,0.382273,0.691489,0.365283,0.076455,0.140167,315.000000,272.000000,43.000000,9.000000,0.000000,0.000000,0.000000,0.000000,0.000000;
#CREDIT:;
#DISPLAYBPM:160.000000;
#NOTES:
0000
0000
0000
0000
,
0000
0000
0000
0000
,
0000
0000
0000
0000
,
0000
0000
0000
0000
,
0000
0000
0000
0000
,
0000
0000
0000
0000
,
0000
0000
0000
0000
,
0000
0000
0000
0000
,
0000
0000
0000
0000
,
0000
0000
0000
0000
0000
2000
0000
0000
0000
0000
0000
0000
0000
0000
0000
0000
,
3000
0000
0010
0010
0001
0000
0100
0100
,
1000
0000
0001
0001
0100
0000
1000
1000
,
0010
0000
1000
0010
0001
0000
0001
0100
,
1000
0000
0010
1000
0100
0000
0100
0001
,
0010
0000
1000
0100
1000
0000
0001
0100
,
1000
0000
0001
0010
0001
0000
0001
0100
,
1000
0000
1000
1000
0100
0000
0010
0010
,
0001
0000
0000
0000
1000
0000
0000
1000
0000
0000
1001
0000
0000
0000
0000
0000
,
0000
0000
0001
0010
0100
0000
0001
0010
,
1000
0000
1000
0100
0010
0000
1000
0100
,
0001
0000
0010
0100
1000
0000
0001
0100
,
1000
0000
0100
0010
0001
0000
1000
0010
,
0001
0000
0010
0100
0010
0000
1000
0100
,
0010
0000
0100
0010
0100
0000
0001
0010
,
0100
0000
0001
0001
0010
0000
0100
0100
,
1000
1001
0100
0010
,
0001
2000
3010
0002
,
0013
2000
3100
0002
,
0103
0000
0000
1000
0000
1000
0000
1000
0000
0001
0000
0001
,
0000
0001
0000
1000
0000
1000
0000
1000
0000
0010
0000
0010
,
0000
0010
0000
1000
0000
1000
0000
1000
0000
0100
0000
0100
,
0000
0100
0000
0002
0000
0000
0000
0000
0000
0000
0000
0000
,
0000
0000
0000
0000
1003
0000
0000
0000
0000
0000
0000
0000
1000
0000
0000
1000
,
0000
0000
1000
0000
0000
0001
0000
0000
0001
0000
0000
0000
0000
0000
0000
0000
,
0000
1000
0100
0011
,
0000
0100
0010
1001
,
0000
1000
0100
1010
,
0000
0001
0010
0101
,
0000
0000
1000
0100
1000
0001
0010
0101
,
0000
1000
0100
1000
0001
0100
0011
0000
,
0000
0000
0001
0100
0001
1000
0010
1100
,
0000
0001
0010
0001
1000
0100
1010
0000
,
0000
0000
0001
0001
0010
0000
0000
1001
,
0000
0000
0010
0010
0100
0000
0000
0110
,
0000
0000
0100
0100
1000
0000
0000
1001
,
0000
0100
0100
1000
,
1001
0001
0010
1100
,
0000
0010
0100
1010
,
0000
1000
0010
1100
,
0000
0001
0100
0011
,
0000
1000
1000
1001
,
0000
0001
0001
1001
,
0000
0100
0100
0110
,
0000
0010
0010
0110
,
0000
1000
0001
1001
,
0000
0001
0100
0101
,
0000
1000
0100
1100
,
0000
0010
0100
0110
,
0000
0000
1000
1000
1000
0000
0000
0001
,
0000
0000
0001
0000
0001
0000
0000
1000
,
0000
0000
1000
1000
1000
0000
0000
0010
,
0000
0001
0001
0100
,
0110
1000
0100
0011
,
0000
0001
0010
0110
,
0000
1000
0100
1100
,
0000
0001
0010
1001
,
0000
0000
0000
0000
0011
0000
0000
0000
0000
0000
0000
0000
1000
0000
0000
1000
,
0000
0000
1000
0000
0000
0010
0000
0000
0100
0000
0000
0000
0000
0000
0000
0000
,
0000
0000
0000
0000
2000
0000
0000
0000
0000
0000
3000
0000
0100
0000
0000
0100
,
0000
0000
0100
0000
0000
0010
0000
0000
0100
0000
0000
1000
0000
0000
0000
0000
,
0000
0000
0000
1001
0000
1000
0000
1000
0000
1001
0000
0001
,
0000
0001
0000
0110
0000
0100
0000
0100
0000
0110
0000
0010
,
0000
0010
0000
1100
0000
1100
0000
1100
0000
0011
0000
0011
,
0000
0011
0000
2002
0000
0000
0000
0000
0000
0000
0000
0000
,
3003
0000
0000
0000
;

//---------------dance-single - ----------------
#NOTEDATA:;
#CHARTNAME:;
#CHARTHASH:775501100;
#STEPSTYPE:dance-single;
#BANNER:;
#DESCRIPTION:;
#CHARTSTYLE:;
#DIFFICULTY:Hard;
#METER:15;
#METERF:0.000000;
#RADARVALUES:0.558240,0.880077,0.849495,0.407758,0.191136,460.000000,360.000000,100.000000,48.000000,0.000000,0.000000,0.000000,0.000000,0.000000,0.558240,0.880077,0.849495,0.407758,0.191136,460.000000,360.000000,100.000000,48.000000,0.000000,0.000000,0.000000,0.000000,0.000000;
#CREDIT:;
#DISPLAYBPM:160.000000;
#NOTES:
// measure 0
0000
0000
0000
0000
,  // measure 1
0000
0000
0000
0000
,  // measure 2
0000
0000
0000
0000
,  // measure 3
0000
0000
0000
0000
,  // measure 4
0000
0000
0000
0000
,  // measure 5
0000
0000
0000
0000
,  // measure 6
0000
0000
0000
0000
,  // measure 7
0000
0000
0000
0000
,  // measure 8
0000
0000
0000
0000
,  // measure 9
0000
0000
0000
0000
0000
2002
0000
0000
0000
0000
0000
0000
0000
0000
0000
0000
,  // measure 10
3003
0000
0010
0010
0001
0010
0000
1000
,  // measure 11
0010
1000
0000
0010
0000
0001
1000
0000
,  // measure 12
1000
0000
0001
0100
0010
0100
0000
0001
,  // measure 13
1000
0100
0000
0001
0100
0001
0010
0010
,  // measure 14
1000
0000
0100
0010
1000
0001
0000
0100
,  // measure 15
0010
0001
0000
0010
0001
1000
0010
0000
,  // measure 16
0100
0000
0010
0010
0010
0010
0001
0001
,  // measure 17
0001
0000
0001
0000
1100
0000
0000
1010
0000
0000
1001
0000
0000
0000
0000
0000
,  // measure 18
0110
0000
0010
0100
0001
0010
0000
1000
,  // measure 19
0100
0001
0000
0001
0000
2000
0000
3010
,  // measure 20
0001
0010
0100
1000
0010
0100
0000
1000
,  // measure 21
0001
0100
0000
0001
0010
0100
0020
0000
,  // measure 22
0031
0000
0010
0010
1000
0100
0000
0001
,  // measure 23
0100
0001
0000
1000
0100
0001
0020
0000
,  // measure 24
1030
0000
1000
1000
0001
0001
1000
1000
,  // measure 25
1001
1001
0210
0000
2300
0000
3020
0000
,  // measure 26
0032
0000
0000
0000
0203
0000
0000
0000
0301
0020
0000
0031
2000
0000
0000
3000
,  // measure 27
0110
0000
1000
0001
2000
0000
0000
0000
3001
0020
0000
0130
0010
0000
0000
0000
,  // measure 28
1100
1001
0011
1010
0000
0101
0000
0011
0000
1100
0000
1001
,  // measure 29
0000
0110
0000
0011
0000
0110
0000
1100
0000
1001
0000
1010
,  // measure 30
0000
0101
0000
1001
0000
0110
0000
1010
0000
0101
0000
1001
,  // measure 31
0000
0000
0000
0000
1001
0000
0000
0000
0000
0000
0000
0000
0001
0000
0000
0010
0000
0000
0001
0000
0000
0000
0000
0000
0100
0000
0000
0010
0000
0000
0100
0000
0000
0000
0000
0000
1000
0000
0000
0100
0000
0000
1000
0000
0000
0000
0000
0000
,  // measure 32
0001
1000
0001
0000
0220
0000
0000
0000
0000
0000
0330
0000
1001
0000
0000
1001
,  // measure 33
0000
0000
1001
0000
0000
0011
0000
0000
1100
0000
0000
0000
0000
0000
0000
0000
,  // measure 34
0000
0012
1003
0220
,  // measure 35
0330
0100
0000
0010
0001
1000
0002
0000
,  // measure 36
0103
0000
0001
0000
0001
0000
0010
1000
,  // measure 37
0000
0100
0000
1000
0010
0001
0000
0010
,  // measure 38
1000
0000
0001
1000
0001
0010
0001
0100
,  // measure 39
0000
0100
0000
0001
1000
0010
0002
0000
,  // measure 40
1003
0000
0100
0001
0010
1000
0001
0001
,  // measure 41
0000
0100
0010
0001
0010
1000
0001
0100
,  // measure 42
0000
0010
0011
0011
1100
0000
0000
2000
,  // measure 43
0000
3100
2020
3030
0101
0000
0000
0002
,  // measure 44
0000
0013
1100
1100
0101
0000
0000
0200
,  // measure 45
0000
0310
0001
0100
1000
0010
0001
1000
,  // measure 46
0010
0002
0103
1001
,  // measure 47
0000
0010
0000
0100
0010
0001
1000
0100
,  // measure 48
1000
0000
0010
0010
0010
0000
0001
1000
,  // measure 49
0000
0010
0001
0100
0100
0001
0100
1000
,  // measure 50
1000
0001
0220
0330
2002
3003
0011
0000
,  // measure 51
0000
1000
0010
0001
0010
1000
0200
0000
,  // measure 52
0301
0000
0010
1000
0100
1000
0001
0100
,  // measure 53
0000
0100
0001
1000
0001
0010
0000
0002
,  // measure 54
0103
0000
0001
0100
0010
1000
0011
1100
,  // measure 55
0000
2000
0000
3100
0010
0100
0010
0000
,  // measure 56
0000
0020
0000
0031
0010
1000
0100
0001
,  // measure 57
0000
0001
1000
0001
1000
0010
0100
0010
,  // measure 58
0100
0001
1010
1100
1001
0000
0000
0020
,  // measure 59
0000
0130
0101
0000
0011
0000
0000
0210
,  // measure 60
0000
0310
1010
1001
0101
0000
0000
2001
,  // measure 61
0000
3001
0010
0000
0010
0100
0001
0000
,  // measure 62
1001
2100
3100
0011
,  // measure 63
0000
0020
0000
0031
1000
0001
1000
0110
,  // measure 64
0000
0000
0012
0000
0013
0000
0001
1100
,  // measure 65
0000
0010
0001
0100
0001
2000
0000
3100
,  // measure 66
0010
0000
0001
0000
0220
0000
0000
0000
0000
0000
0330
0000
1001
0000
0000
1001
,  // measure 67
0000
0000
1001
0000
0000
1010
0000
0000
0101
0000
0000
0000
0000
0000
0000
0000
,  // measure 68
0000
0000
0000
0000
2002
0000
0000
0000
0000
0000
3003
0000
0110
0000
0000
0110
,  // measure 69
0000
0000
0110
0000
0000
0011
0000
0000
1100
0000
0000
1100
0000
0000
0000
0000
,  // measure 70
0000
0000
0000
0011
0000
1100
0000
1100
0000
1010
0000
0101
,  // measure 71
0000
0101
0000
1100
0000
0101
0000
0101
0000
0011
0000
1010
,  // measure 72
0000
1010
0000
1100
0000
0101
0000
0011
0000
1010
0000
1100
,  // measure 73
0000
0110
0000
2002
0000
0000
0000
0000
0000
0000
0000
0000
,  // measure 74
3003
0000
0000
0000
;
