#VERSION:0.83;
#TITLE:吾輩よ猫であれ;
#SUBTITLE:;
#ARTIST:Lyrical Lily;
#TITLETRANSLIT:I Shall Be a Cat;
#SUBTITLETRANSLIT:;
#ARTISTTRANSLIT:Lyrical Lily;
#GENRE:;
#ORIGIN:;
#CREDIT:;
#BANNER:I Shall Be a Cat.png;
#BACKGROUND:I Shall Be a Cat-BG.png;
#PREVIEWVID:;
#JACKET:I Shall Be a Cat-jacket.png;
#CDIMAGE:;
#DISCIMAGE:;
#LYRICSPATH:;
#CDTITLE:;
#MUSIC:I Shall Be a Cat.ogg;
#OFFSET:-0.080000;
#SAMPLESTART:52.985641;
#SAMPLELENGTH:12.000000;
#SELECTABLE:YES;
#BPMS:0.000=136.000;
#STOPS:;
#DELAYS:;
#WARPS:;
#TIMESIGNATURES:0.000=4=4;
#TICKCOUNTS:0.000=4;
#COMBOS:0.000=1;
#SPEEDS:0.000=1.000=0.000=0;
#SCROLLS:0.000=1.000;
#FAKES:;
#LABELS:0.000=Song Start;
#BGCHANGES:;
#KEYSOUNDS:;
#ATTACKS:
;

//---------------dance-single - ----------------
#NOTEDATA:;
#CHARTNAME:;
#STEPSTYPE:dance-single;
#DESCRIPTION:;
#CHARTSTYLE:;
#DIFFICULTY:Hard;
#METER:15;
#RADARVALUES:0.584534,0.780137,0.995072,0.764216,0.262699,514.000000,389.000000,125.000000,96.000000,0.000000,0.000000,0.000000,0.000000,0.000000,0.584534,0.780137,0.995072,0.764216,0.262699,514.000000,389.000000,125.000000,96.000000,0.000000,0.000000,0.000000,0.000000,0.000000;
#CREDIT:;
#NOTES:
0000
0000
0000
0000
,
0000
0000
0000
0000
,
0000
0000
0000
0000
,
0000
0000
0000
0000
,
0000
0000
0000
0000
,
0000
0000
0000
0000
,
0010
0020
0000
2030
0000
3020
0000
0032
,
0000
0023
0000
0031
0000
1001
0000
0000
,
0100
0002
0000
0023
0000
2030
0000
3200
,
0000
0000
0000
0300
0000
1100
1100
0000
,
0100
2000
0000
3002
0000
0023
0000
0230
,
0000
2300
0000
3100
0000
0110
0000
0000
,
0001
0002
0000
0023
0000
1030
0000
1100
,
0000
0100
0010
1100
0000
0101
0101
0000
,
0010
0200
0000
2300
0000
3200
0000
0302
,
0000
0203
0000
1300
0000
0011
0000
0000
,
0001
0002
0000
0203
0000
2300
0000
3200
,
0000
0000
0000
0000
0300
0101
0101
0000
,
0010
0002
0000
2003
0000
3200
0000
0320
,
0000
2030
0000
3010
0000
0011
0000
1000
,
0100
2000
0000
3002
0000
2003
0000
3002
,
0000
1003
0010
0101
0000
1001
1001
0000
,
0002
0000
0000
0003
0002
0000
0000
0003
,
0200
2300
3200
0302
,
0020
0000
0000
0030
0020
0000
0030
1000
,
2003
0000
3020
0000
2030
3000
2000
3001
,
0002
0000
0000
0003
0011
0000
0000
0010
,
0200
0302
2003
3002
,
0000
0000
0000
0000
0003
0000
0110
0220
,
0000
0330
1001
2200
0000
0000
3300
0000
,
1000
0000
0100
0000
0010
0000
1000
0100
0000
0010
0001
0000
0100
0000
1001
0000
,
0010
0000
0100
0000
1000
0000
0010
0100
0000
1000
0001
0000
1000
0000
1001
0000
,
1000
0000
0100
0000
0001
0000
1000
0001
0000
0010
0100
0000
0001
0000
1001
0000
,
0022
0000
0033
0220
0000
0330
1100
0000
0022
0000
0033
0220
0000
0330
1100
0000
,
0001
0000
0010
0000
0100
0000
0001
0010
0000
0100
1000
0000
0011
0000
1100
0000
,
0010
0000
0100
0000
1000
0000
0010
0100
0000
1000
0001
0000
1100
0000
0011
0000
,
2020
3030
1100
0110
0000
0200
0000
0320
,
0000
0031
0001
0001
2020
3030
2200
3300
,
2020
3030
0100
0000
0010
0000
1000
0202
0303
0001
1000
0000
0011
0000
1100
0000
,
0022
0033
0100
0000
1000
0000
0001
2020
3030
1000
0001
0000
1100
0000
0011
0000
,
2020
3030
0001
0000
0100
0000
1000
0001
0000
0001
1000
0000
0011
0000
0101
0000
,
2020
0000
3030
0022
0000
0033
1001
0000
2200
0000
3300
0202
0000
0303
0110
0000
,
1000
0000
0100
0000
0001
0000
0100
0010
0000
0010
0100
0000
0011
0000
1010
0000
,
0001
0000
0100
0000
1000
0000
0010
0100
0000
0100
0010
0000
1100
0000
0101
0000
,
0200
0000
0310
0100
0000
0011
0000
1100
,
0000
0100
0010
0202
0000
0303
0000
0000
,
0110
0000
0000
0100
0010
0100
0010
0000
,
1010
0000
0000
0100
0010
1000
0000
0000
,
0011
0000
0000
0100
0001
0010
0000
0000
,
0220
0000
0000
0330
,
1000
1000
1000
1000
,
1100
0000
1100
0000
0101
0000
0001
1000
0000
1000
0001
0000
1001
0000
0000
0000
,
1001
0000
0100
0000
0010
0000
1000
0001
0000
1000
0001
0000
0110
0000
0000
0000
,
1001
0000
0010
0000
0100
0000
0001
1000
0000
0001
1000
0000
0110
0000
0000
0000
,
1100
0000
0010
0000
0001
0000
1000
0100
0000
0010
0001
0000
0101
0000
0000
0000
,
0101
0000
0010
0000
1000
0000
0001
0010
0000
0100
1000
0000
0011
0000
0000
0000
,
0110
0000
0110
0000
1001
0000
1000
0001
0000
0001
1000
0000
0011
0000
0000
0000
,
1001
0000
1001
0000
0110
0000
0001
1000
0000
1000
0001
0000
1100
0000
0000
0000
,
1100
0000
1100
0000
0011
0000
1000
0010
0000
0001
0100
0000
1010
0000
0000
0000
,
0011
0000
0011
0000
1100
0000
0001
0010
0000
1000
0100
0000
0101
0000
0000
0000
,
1001
0000
1001
0000
1001
0000
1000
1000
0000
0100
0100
0000
0011
0000
0000
0000
,
0110
0000
0110
0000
0110
0000
0001
0001
0000
0010
0010
0000
1100
0000
0000
0000
,
1100
0000
0101
0000
1100
0000
1000
0100
0000
0001
0100
0000
1001
0000
0000
0000
,
1010
0000
0011
0000
1010
0000
0001
0010
0000
1000
0010
0000
1001
0000
0000
0000
,
1001
0000
1000
0001
0000
1000
0001
0000
1000
0001
0000
1000
0001
0000
1001
0000
,
0110
0000
0100
0010
0000
0100
0010
0000
0100
0010
0000
0100
0010
0000
0110
0000
,
0001
0100
1000
0000
1000
0100
0001
0000
0001
0010
1000
0000
1000
0010
0001
0000
,
1000
0100
1000
0000
0001
0100
0001
0000
1000
0010
1000
0000
0001
0100
0001
0000
,
1001
0000
1001
0000
1100
1100
0101
0000
,
0110
0000
0110
0000
0011
0011
1010
2002
,
3003
0000
0000
0000
;

//---------------dance-single - ----------------
#NOTEDATA:;
#CHARTNAME:;
#STEPSTYPE:dance-single;
#DESCRIPTION:;
#CHARTSTYLE:;
#DIFFICULTY:Medium;
#METER:12;
#RADARVALUES:0.360501,0.557241,0.047763,0.469674,0.115428,317.000000,311.000000,6.000000,59.000000,0.000000,0.000000,0.000000,0.000000,0.000000,0.360501,0.557241,0.047763,0.469674,0.115428,317.000000,311.000000,6.000000,59.000000,0.000000,0.000000,0.000000,0.000000,0.000000;
#CREDIT:;
#NOTES:
0000
0000
0000
0000
,
0000
0000
0000
0000
,
0000
0000
0000
0000
,
0000
0000
0000
0000
,
0000
0000
0000
0000
,
0000
0000
0000
0000
,
0010
0010
0000
1000
0000
0010
0000
0001
,
0000
0010
0000
0001
0000
1000
0000
0000
,
0100
0001
0000
0010
0000
1000
0000
0200
,
0000
0000
0000
0000
0300
1000
1000
0000
,
0100
1000
0000
0001
0000
0010
0000
0100
,
0000
1000
0000
0100
0000
0010
0000
0000
,
0001
0001
0000
0010
0000
1000
0000
1000
,
0000
0100
0010
0100
0000
0001
0001
0000
,
0010
0100
0000
1000
0000
0100
0000
0001
,
0000
0100
0000
1000
0000
0010
0000
0000
,
0001
0001
0000
0100
0000
1000
0000
0200
,
0000
0000
0000
0000
0300
0001
0001
0000
,
0010
0001
0000
1000
0000
0100
0000
0010
,
0000
1000
0000
0010
0000
0010
0000
1000
,
0100
1000
0000
0001
0000
1000
0000
0001
,
0000
1000
0010
0100
0000
1000
1000
0000
,
0001
0000
0001
0000
,
0100
1000
0100
0001
,
0010
0000
0000
0000
0010
0000
0000
1000
,
1000
0000
0010
0000
1000
0000
1000
0001
,
0001
0000
0000
0000
0010
0000
0000
0010
,
0100
0001
1000
0001
,
0000
0000
0000
0000
0000
0000
0010
0010
,
0000
0000
0100
0100
0000
0000
0000
0000
,
0001
0000
0010
0000
0100
0000
0001
0010
0000
0010
0001
0000
0010
0000
0001
0000
,
0100
0000
0010
0000
0001
0000
1000
0100
0000
0100
1000
0000
1000
0000
0001
0000
,
0001
0000
0010
0000
1000
0000
0001
0100
0000
0100
0001
0000
0001
0000
1000
0000
,
0020
0000
0030
0200
0000
0300
1000
0000
0002
0000
0003
0020
0000
0030
0100
0000
,
0001
0000
0010
0000
0100
0000
0010
0100
0000
0100
0010
0000
0001
0000
1000
0000
,
0010
0000
0100
0000
1000
0000
0001
1000
0000
1000
0001
0000
0100
0000
0010
0000
,
0020
0030
0100
0010
0000
0200
0000
0320
,
0000
0031
0001
0001
2000
3000
2000
3000
,
2000
3000
0100
0000
0010
0000
1000
0002
0003
0001
1000
0000
0010
0000
0100
0000
,
0020
0030
0100
0000
1000
0000
0001
2000
3000
1000
0001
0000
0100
0000
0010
0000
,
2000
3000
0100
0000
0010
0000
1000
0001
0000
0001
1000
0000
0010
0000
0100
0000
,
2000
0000
3000
0020
0000
0030
0001
0000
0200
0000
0300
0002
0000
0003
0010
0000
,
1000
0000
0100
0000
1000
0000
0100
0010
0000
0010
0100
0000
0001
0000
0010
0000
,
0001
0000
0010
0000
0001
0000
0010
0100
0000
0100
0010
0100
1000
0000
0100
0000
,
2000
0000
3010
0100
0000
0001
0000
0100
,
0000
0100
0010
0200
0000
0300
0000
0000
,
0110
0000
0000
0100
0010
0100
0010
0000
,
1000
0000
0000
0100
0010
0100
0000
0000
,
0010
0000
0000
0100
0010
0100
0000
0000
,
0220
0000
0000
0330
,
1000
1000
1000
1000
,
0100
0000
0100
0000
0100
0000
0001
1000
0000
1000
0001
0000
1001
0000
0000
0000
,
0020
0000
0000
0000
0000
0000
0030
0010
,
0020
0030
0020
0030
0020
0030
0020
0030
,
0020
0000
0000
0000
0000
0000
0000
0000
0000
0000
0000
0000
0030
0000
0010
0001
,
0020
0030
0020
0030
0020
0030
0020
0030
,
0020
0000
0000
0000
0000
0000
0000
0000
0000
0000
0000
0000
0030
0000
0010
0001
,
0020
0030
0020
0030
0020
0030
0020
0030
,
0020
0000
0030
0010
0020
0000
0030
0010
,
0020
0000
0030
0010
0020
0000
0031
0020
,
0000
0030
0100
2000
3000
1000
0100
0020
,
0000
0030
0001
0110
0000
0000
1000
0200
,
0000
0300
0010
0002
0000
0003
0010
0200
,
0000
0300
1000
0110
0000
0000
1000
0020
,
0000
0030
1000
0020
0000
0030
0001
0200
,
0300
0002
0003
0200
0300
0000
1000
0002
,
0000
0003
1000
0002
0003
1000
0001
1000
,
0010
0100
0010
0000
0000
0001
0010
0100
,
2000
0000
0000
3000
,
1000
0000
1000
0000
0001
0001
0001
2002
,
3003
0000
0000
0000
;

//---------------dance-single - ----------------
#NOTEDATA:;
#CHARTNAME:;
#STEPSTYPE:dance-single;
#DESCRIPTION:;
#CHARTSTYLE:;
#DIFFICULTY:Easy;
#METER:5;
#RADARVALUES:0.221759,0.389372,0.119409,0.015921,0.000000,195.000000,180.000000,15.000000,2.000000,0.000000,0.000000,0.000000,0.000000,0.000000,0.221759,0.389372,0.119409,0.015921,0.000000,195.000000,180.000000,15.000000,2.000000,0.000000,0.000000,0.000000,0.000000,0.000000;
#CREDIT:;
#NOTES:
0000
0000
0000
0000
,
0000
0000
0000
0000
,
0000
0000
0000
0000
,
0000
0000
0000
0000
,
0000
0000
0000
0000
,
0000
0000
0000
0000
,
0010
0000
0000
0000
,
0010
0000
0000
0000
,
1000
0000
0000
0000
,
1000
0000
0000
0000
0000
0001
0001
0000
,
0010
0000
0000
0000
,
1000
0000
0000
0000
,
0001
0000
0000
0000
,
1000
0000
0000
0000
0000
0001
0001
0000
,
0010
0000
0000
0000
,
0001
0000
0000
0000
,
0001
0000
0000
0000
,
1000
0000
0000
0000
0000
1000
1000
0000
,
0010
0000
0000
0000
,
0010
0000
0000
0000
,
1000
0000
0000
0000
,
1000
0000
0000
0100
0000
0100
0100
0000
,
0001
0001
0001
0001
,
0100
0100
0100
0100
,
1000
1000
1000
1000
,
1000
1000
1000
1000
,
0001
0001
0010
0010
,
0100
1000
0001
1000
,
1000
1000
1000
1000
,
0010
0010
1000
0100
,
1000
0001
1000
0000
0001
1000
0001
0000
,
1000
0010
1000
0000
0001
0100
0001
0000
,
1000
0100
1000
0000
0001
0010
0001
0000
,
1001
0000
1001
0000
,
0010
0100
0010
0000
0100
0010
0100
0000
,
0010
1000
0010
0000
0100
0001
0100
0000
,
0100
0001
0100
0000
,
0010
1000
0001
0001
,
1100
0000
1100
0000
,
0011
0000
0011
0000
,
1100
0000
1000
0000
,
1001
0000
1001
0000
,
1000
0001
1000
0000
0001
1000
0001
0000
,
1000
0010
1000
0000
0100
0001
0100
0000
,
1000
0001
1000
0000
,
0001
1000
0001
0000
,
0011
0000
0000
1000
0100
1000
0000
0000
,
1100
0000
0000
0001
0010
0001
0000
0000
,
0110
0000
0000
0100
0010
0100
0000
0000
,
1001
0000
0000
0001
1000
0001
0000
0000
,
2000
0000
0000
0000
,
3002
0000
0000
0000
,
0013
0000
0000
0000
,
0010
0010
0010
0010
,
0010
0000
0000
0000
,
0001
0001
0001
0001
,
0001
0000
0000
0000
,
0010
0010
0010
0010
,
0010
0000
0001
0000
,
0001
0000
0001
0000
,
0100
0000
0000
0000
,
0100
0100
0100
0100
,
0100
0000
0000
0000
,
1000
1000
1000
1000
,
1000
0000
0000
0000
,
0100
0100
0100
0100
,
0100
0000
1000
0000
,
1000
0000
1000
0000
,
0110
0000
0000
0000
,
0000
0000
0000
0000
0000
0000
0000
1001
;

//---------------dance-single - ----------------
#NOTEDATA:;
#CHARTNAME:;
#STEPSTYPE:dance-single;
#DESCRIPTION:;
#CHARTSTYLE:;
#DIFFICULTY:Beginner;
#METER:1;
#RADARVALUES:0.086429,0.189462,0.023882,0.000000,0.000000,76.000000,73.000000,3.000000,0.000000,0.000000,0.000000,0.000000,0.000000,0.000000,0.086429,0.189462,0.023882,0.000000,0.000000,76.000000,73.000000,3.000000,0.000000,0.000000,0.000000,0.000000,0.000000,0.000000;
#CREDIT:;
#NOTES:
// measure 0
0000
0000
0000
0000
,  // measure 1
0000
0000
0000
0000
,  // measure 2
0000
0000
0000
0000
,  // measure 3
0000
0000
0000
0000
,  // measure 4
0000
0000
0000
0000
,  // measure 5
0000
0000
0000
0000
,  // measure 6
0010
0000
0000
0000
,  // measure 7
0010
0000
0000
0000
,  // measure 8
1000
0000
0000
0000
,  // measure 9
1000
0000
0000
0000
,  // measure 10
0010
0000
0000
0000
,  // measure 11
1000
0000
0000
0000
,  // measure 12
0001
0000
0000
0000
,  // measure 13
1000
0000
0000
0000
,  // measure 14
0010
0000
0000
0000
,  // measure 15
0001
0000
0000
0000
,  // measure 16
0001
0000
0000
0000
,  // measure 17
1000
0000
0000
0000
,  // measure 18
0010
0000
0000
0000
,  // measure 19
0010
0000
0000
0000
,  // measure 20
1000
0000
0000
0000
,  // measure 21
1000
0000
0000
0000
,  // measure 22
0001
0000
0000
0000
,  // measure 23
0100
0000
0000
0000
,  // measure 24
1000
0000
0000
0000
,  // measure 25
1000
0000
0000
0000
,  // measure 26
0001
0000
0000
0000
,  // measure 27
0100
0000
0000
0000
,  // measure 28
1000
0000
0000
0000
,  // measure 29
0010
0000
0000
0000
,  // measure 30
1000
0000
0001
0000
,  // measure 31
1000
0000
0001
0000
,  // measure 32
1000
0000
0001
0000
,  // measure 33
1001
0000
1001
0000
,  // measure 34
0010
0000
0100
0000
,  // measure 35
0010
0000
0100
0000
,  // measure 36
0100
0000
0000
0000
,  // measure 37
0010
0000
0000
0000
,  // measure 38
1000
0000
1000
0000
,  // measure 39
0001
0000
0001
0000
,  // measure 40
1000
0000
0000
0000
,  // measure 41
1000
0000
0000
0000
,  // measure 42
1000
0000
0001
0000
,  // measure 43
1000
0000
0100
0000
,  // measure 44
1000
0000
0000
0000
,  // measure 45
0001
0000
0000
0000
,  // measure 46
0001
0000
0000
0000
,  // measure 47
1000
0000
0000
0000
,  // measure 48
0010
0000
0000
0000
,  // measure 49
0100
0000
0000
0000
,  // measure 50
1000
0000
0000
0000
,  // measure 51
0001
0000
0000
0000
,  // measure 52
0010
0000
0000
0000
,  // measure 53
0010
0000
0000
0000
,  // measure 54
0010
0000
0000
0000
,  // measure 55
0010
0000
0000
0000
,  // measure 56
0010
0000
0000
0000
,  // measure 57
0010
0000
0000
0000
,  // measure 58
0010
0000
0000
0000
,  // measure 59
0010
0000
0000
0000
,  // measure 60
0010
0000
0000
0000
,  // measure 61
0010
0000
0000
0000
,  // measure 62
0010
0000
0000
0000
,  // measure 63
0010
0000
0000
0000
,  // measure 64
0010
0000
0000
0000
,  // measure 65
0010
0000
0000
0000
,  // measure 66
0010
0000
0000
0000
,  // measure 67
0010
0000
0000
0000
,  // measure 68
1001
0000
0000
0000
;
