#VERSION:0.83;
#TITLE:I AM THE BEST;
#SUBTITLE:;
#ARTIST:Abyssmare;
#TITLETRANSLIT:;
#SUBTITLETRANSLIT:;
#ARTISTTRANSLIT:;
#GENRE:;
#ORIGIN:;
#TAGS:;
#CREDIT:;
#BANNER:I AM THE BEST.png;
#BACKGROUND:I AM THE BEST-BG.png;
#PREVIEWVID:;
#JACKET:I AM THE BEST-Jacket.png;
#CDIMAGE:;
#DISCIMAGE:;
#LYRICSPATH:;
#CDTITLE:;
#MUSIC:I AM THE BEST.ogg;
#OFFSET:0.000000;
#SAMPLESTART:79.401886;
#SAMPLELENGTH:12.000000;
#SELECTABLE:YES;
#BPMS:0.000000=65.000000;
#STOPS:;
#DELAYS:;
#WARPS:;
#TIMESIGNATURES:0.000000=4=4;
#TICKCOUNTS:0.000000=4;
#COMBOS:0.000000=1;
#SPEEDS:0.000000=1.000000=0.000000=0;
#SCROLLS:0.000000=1.000000;
#FAKES:;
#LABELS:0.000000=Song Start;
#BGCHANGES:0.000=I AM THE BEST.mp4=1.000=1=0=0=StretchNoLoop==CrossFade==,
99999.000=-nosongbg-=1.000=0=0=0=StretchNoLoop====,
99999=-nosongbg-=1.000=0=0=0 // don't automatically add -songbackground-
;
#KEYSOUNDS:;
#ATTACKS:
;

//---------------dance-single - ----------------
#NOTEDATA:;
#CHARTNAME:;
#CHARTHASH:16777215;
#STEPSTYPE:dance-single;
#BANNER:;
#DESCRIPTION:;
#CHARTSTYLE:;
#DIFFICULTY:Beginner;
#METER:2;
#METERF:2.000000;
#RADARVALUES:0.097909,0.114227,0.033845,0.000000,0.000000,81.000000,77.000000,4.000000,0.000000,0.000000,0.000000,0.000000,0.000000,0.000000,0.097909,0.114227,0.033845,0.000000,0.000000,81.000000,77.000000,4.000000,0.000000,0.000000,0.000000,0.000000,0.000000,0.000000;
#CREDIT:;
#NOTES:
0000
0000
0000
0000
,
0000
0000
0010
0000
,
0010
0000
0010
0000
,
0010
0000
0001
0000
,
0001
0000
0001
0000
,
0001
0000
1000
1000
,
1000
0000
0100
0100
,
0100
0000
0010
0010
,
0010
0010
0001
0001
,
0001
0001
0010
0000
,
0010
0000
0100
0000
,
0100
0000
0001
0001
,
1000
1000
0001
0000
,
1000
0000
0100
0000
,
0100
0000
0100
0000
,
0100
0000
1000
0000
,
1000
0000
1000
0000
,
1000
0000
0010
0010
,
0010
0010
0010
0010
,
0010
0010
0001
0001
,
0001
0001
0001
0010
,
0100
1000
0000
0000
,
0010
0000
1000
0000
,
1000
0000
0001
0001
,
1000
0000
1000
0000
,
1000
1000
1000
1000
,
0110
0000
0100
0000
,
1001
0000
1000
0000
,
0110
0000
0010
0000
,
1001
0000
0001
0001
,
0001
0000
0000
0000
;

//---------------dance-single - ----------------
#NOTEDATA:;
#CHARTNAME:;
#CHARTHASH:90597320;
#STEPSTYPE:dance-single;
#BANNER:;
#DESCRIPTION:;
#CHARTSTYLE:;
#DIFFICULTY:Easy;
#METER:5;
#METERF:5.000000;
#RADARVALUES:0.198235,0.215762,0.126919,0.000000,0.000000,164.000000,149.000000,15.000000,0.000000,0.000000,0.000000,0.000000,0.000000,0.000000,0.198235,0.215762,0.126919,0.000000,0.000000,164.000000,149.000000,15.000000,0.000000,0.000000,0.000000,0.000000,0.000000,0.000000;
#CREDIT:;
#NOTES:
0000
0000
0000
0000
,
0000
0000
0000
0000
0001
0001
0001
0000
,
1000
1000
1000
0000
0001
0001
0001
0000
,
1000
1000
1000
0100
0110
0000
0000
0000
,
1001
0000
0110
0000
,
1000
0001
1000
0001
1000
1000
1000
1000
,
1000
1000
0000
0000
0000
0100
0100
0100
,
0100
0100
0000
0000
0000
0010
0010
0010
,
0001
0001
0001
0001
1000
1000
1000
1000
,
0001
0001
0001
0001
0010
0100
0000
0100
,
0000
0010
0000
0010
0000
0001
0000
0001
,
1000
1000
1000
1000
0100
1000
0100
1000
,
0100
0001
0100
0001
0010
0010
0010
0000
,
0000
0010
0010
0000
0001
0000
0001
0000
,
1000
1000
0001
0001
,
0100
0100
0010
0010
1000
0000
0001
0000
,
1000
0001
0100
0001
,
0100
0001
0100
0100
,
1000
1000
0100
0100
,
0001
0001
0001
0001
0000
0000
1000
0100
,
1000
0100
0001
0100
0001
0100
1000
1000
,
0001
0001
1000
0001
0000
0000
0000
0000
,
1100
0000
0101
0000
,
1100
0000
0101
0110
,
0011
0000
1010
0000
,
0011
1010
1001
0110
,
1000
0000
1000
0001
0001
0000
0001
1000
,
0100
0000
0100
0010
0010
0000
0010
0100
,
0001
0000
0001
1000
1000
0000
1000
0001
,
0001
0000
0010
0100
1000
1000
0001
0001
,
1001
0000
0000
0000
;

//---------------dance-single - ----------------
#NOTEDATA:;
#CHARTNAME:;
#CHARTHASH:326753337;
#STEPSTYPE:dance-single;
#BANNER:;
#DESCRIPTION:;
#CHARTSTYLE:;
#DIFFICULTY:Medium;
#METER:7;
#METERF:7.000000;
#RADARVALUES:0.285265,0.317296,0.186147,0.059229,0.114227,236.000000,214.000000,22.000000,7.000000,0.000000,0.000000,0.000000,0.000000,0.000000,0.285265,0.317296,0.186147,0.059229,0.114227,236.000000,214.000000,22.000000,7.000000,0.000000,0.000000,0.000000,0.000000,0.000000;
#CREDIT:;
#NOTES:
0000
0000
0000
0000
,
0000
0000
0000
0000
1000
0000
0001
0001
,
0001
0000
1000
1000
1000
0000
0001
0001
,
0001
0000
0000
0000
0000
0000
1000
0000
0000
1000
0000
0000
1000
2000
0000
0000
0000
0000
3100
0000
0000
0100
0000
0000
,
0100
0200
0000
0000
0000
0000
0310
0000
0000
0010
0000
0000
0010
0020
0000
0000
0000
0000
0031
0000
0000
0001
0000
0000
,
0001
1000
0001
1000
0000
0000
0000
0000
0000
0000
0000
0000
0100
0000
0000
0100
0000
0000
0100
0000
0000
0100
0000
0000
,
0100
0010
0000
0000
0100
0100
0100
0100
,
0100
0000
0000
0010
0000
0000
0000
0000
0000
0000
0000
0000
0001
0000
0000
0001
0000
0001
1000
0000
0000
1000
0000
0000
,
1000
0000
0000
1000
0000
0000
1000
0000
0000
0001
0000
0000
0000
0000
0000
0100
0000
0010
0100
0000
0000
0010
0000
0000
,
1000
0000
0000
1000
0000
0000
0001
0000
0000
0001
0000
0010
0000
0000
0000
0001
1000
0001
0000
0000
0000
1000
0001
1000
,
0000
0000
0000
0001
1000
0001
0000
0000
0000
1000
0001
1000
0000
0000
0000
1000
0100
1000
0000
0000
0000
0001
0100
0001
,
0010
0010
0010
0010
0001
0001
0001
0001
,
1000
0000
0000
1000
0000
0000
1000
0000
0000
1000
0000
0000
0100
0000
0000
0010
0000
0000
0010
0000
0000
1000
0000
1000
,
0000
0000
0000
0010
0000
0000
0020
0000
0000
0000
0000
0030
1000
0000
0000
1000
0000
0000
1000
0000
0000
1000
0000
0000
,
1100
0000
0000
0000
0001
0001
0001
0001
,
0100
0000
0000
0101
0000
0000
0100
0000
0000
1100
0000
0000
1000
0000
0000
0000
0000
0000
0001
0000
0000
0000
0000
1000
,
1000
0000
0001
0000
1000
0100
1000
0100
,
0001
0100
0001
0100
1000
1000
0001
0002
,
0103
0100
0001
0001
0010
0010
1000
2000
,
3100
0100
1000
1000
0010
0010
1000
0001
,
1000
0001
0001
1000
0001
1000
0100
0010
,
0100
0010
0100
0010
0000
0000
0000
0000
,
1100
0100
0100
0001
0101
0100
0100
1000
,
1100
0000
0000
0100
0000
0000
0100
0000
0000
1000
0001
1000
0001
0000
0000
0001
1000
0001
1000
0000
0000
0010
0000
0000
,
0011
0010
0010
1000
1010
0010
0010
0001
,
0010
1000
0010
0001
0100
1000
0100
0000
,
1100
0000
0010
1010
1010
0000
0010
0011
,
0011
0000
0100
0101
0101
0000
0100
1100
,
1100
0000
0010
1001
1001
0000
0100
0110
,
0110
0000
0010
0020
1030
0001
1000
0001
,
0110
0000
0000
0000
;

//---------------dance-single - ----------------
#NOTEDATA:;
#CHARTNAME:;
#CHARTHASH:2214723584;
#STEPSTYPE:dance-single;
#BANNER:;
#DESCRIPTION:;
#CHARTSTYLE:;
#DIFFICULTY:Hard;
#METER:12;
#METERF:12.000000;
#RADARVALUES:0.498004,0.507674,0.194609,0.228453,0.799587,412.000000,389.000000,23.000000,27.000000,0.000000,0.000000,0.000000,0.000000,0.000000,0.498004,0.507674,0.194609,0.228453,0.799587,412.000000,389.000000,23.000000,27.000000,0.000000,0.000000,0.000000,0.000000,0.000000;
#CREDIT:;
#NOTES:
// measure 0
0000
0000
0000
0000
,  // measure 1
0000
0000
0000
0000
0000
0000
0000
0000
0000
0000
0000
0000
1000
1000
0000
1000
0000
1000
1000
0000
0001
1000
0001
1000
,  // measure 2
0001
0001
0000
0001
0000
0001
0001
0000
1000
0001
1000
0001
1000
1000
0000
1000
0000
1000
1000
0000
0001
1000
0001
1000
,  // measure 3
0001
0001
0000
0001
0000
0001
0001
0000
1000
0002
0000
0000
0013
0100
0000
1000
0000
1000
1000
0000
0001
1000
0001
1000
,  // measure 4
0010
0100
0000
0001
0000
0001
0001
0000
1000
0001
1000
0001
0010
0100
0000
1000
0000
1000
1000
0000
0001
1000
0001
1000
,  // measure 5
0010
0100
0010
0100
0000
0000
0100
0000
0000
1001
0000
0000
0100
0000
0000
1000
0100
1000
0200
0000
0000
0301
0000
0001
,  // measure 6
0200
0000
0000
0310
0000
0000
0010
0000
0000
0010
0000
0000
0100
0000
0000
0001
0100
0001
0200
0000
0000
1300
0000
1000
,  // measure 7
0200
0000
0000
0310
0000
0000
0010
0000
0000
0010
0010
0010
0100
0000
0000
0020
0000
0130
0010
0000
0000
0002
0000
1003
,  // measure 8
0001
0000
0000
1100
0000
0000
0101
0000
0000
0110
0000
0000
0100
0000
0000
1000
0100
0001
0100
0000
0000
0020
0000
0000
,  // measure 9
0230
0000
0000
0310
0000
1000
0001
0000
0000
0002
0000
1003
0000
0000
0000
1000
0010
2000
0000
0000
0000
3001
0010
0002
,  // measure 10
0000
0000
0000
0103
1000
0200
0000
0000
0000
0310
0001
0020
0000
0000
0030
0010
1000
0020
0000
0000
0000
0031
0100
1000
,  // measure 11
0001
0000
0000
0011
0000
0000
1010
0000
0000
1001
0000
0000
1000
0100
0001
0100
1000
0100
0001
0000
0001
0010
1000
0010
,  // measure 12
0001
0010
1000
0010
0001
0010
1000
0100
0001
0100
1000
0001
0000
0000
0000
0101
0000
0000
1100
0000
0000
0010
0000
0010
,  // measure 13
0000
0000
0000
0011
0000
0000
2020
0000
0000
0000
0000
3030
0001
0000
0001
1000
0000
0001
1000
0000
0001
1000
0000
1000
,  // measure 14
0000
0000
0000
1000
0000
0000
1000
0000
0000
1000
0010
0000
1000
0000
1000
0001
0000
1000
0001
0000
1000
0001
0000
1000
,  // measure 15
0001
0000
0000
0001
0000
0000
0001
0000
0000
0001
0000
0000
0110
0000
0000
0010
0000
0010
1000
0000
0010
1000
0000
0010
,  // measure 16
0001
0000
0010
0001
0000
0010
0020
0000
0000
0030
0000
0000
1000
1000
1000
1000
0000
0000
0100
0000
0010
0000
0100
0000
,  // measure 17
0001
0000
1000
0000
0001
0000
0100
0000
0100
0000
0110
0000
0100
0000
1000
0100
0000
0001
0100
0000
0010
0100
0000
0000
,  // measure 18
0010
0000
1000
0010
0000
0001
0010
0000
0100
0010
0000
0001
1000
0000
0001
1000
0000
0001
1000
0000
0010
0100
0000
1000
,  // measure 19
0001
0000
1000
0001
0000
1000
0001
0000
0100
0010
0000
0001
1000
0000
1000
0001
0000
0000
1000
0100
1000
0100
1000
0100
,  // measure 20
0001
0000
0011
0000
0000
0000
0001
0100
0001
0100
0001
0100
1000
0000
1010
0000
0000
0000
1000
0001
1000
0001
1000
0010
,  // measure 21
1000
0010
1000
0100
1000
0100
0001
0001
0001
0001
0001
0001
0000
0000
0000
0000
0000
0000
0000
0000
0000
0000
0000
0000
,  // measure 22
1100
0000
1000
1000
0000
1000
1000
0000
1000
1000
0000
1000
1010
0000
1000
1000
0000
1000
1000
0000
1000
1000
0000
1000
,  // measure 23
1001
0000
1000
1000
0000
1000
1000
0000
1000
1000
0000
1000
0110
0000
0001
0010
0000
0010
0100
0000
0100
1000
0000
0000
,  // measure 24
0011
0000
0001
0001
0000
0001
0001
0000
0001
0001
0000
0001
0101
0000
0001
0001
0000
0001
0001
0000
0001
0001
0000
0001
,  // measure 25
1001
0000
0000
1000
1000
1000
1000
0000
0000
0001
0001
0001
0001
0000
0001
1000
0000
0001
1000
0001
1000
0002
0000
0000
,  // measure 26
0023
0000
0000
0000
0000
1030
0001
0000
1000
0001
0000
0000
0020
0000
0000
0000
0000
0031
1000
0000
0000
1001
0000
0000
,  // measure 27
0002
0000
0000
0000
0000
0103
0010
0000
0100
0010
0000
0000
0002
0000
0000
0000
0000
0000
0103
0010
0100
0010
0000
0000
,  // measure 28
0200
0000
0000
0000
0000
1300
0001
0000
1000
0001
0000
0000
0200
0000
0000
0000
0000
0301
1000
0000
0001
1000
0000
0000
,  // measure 29
2000
0000
0000
0000
0000
3001
0100
0000
0010
0100
0000
0000
1000
0100
1000
0001
0100
0001
0100
0010
0100
0020
0000
0000
,  // measure 30
0130
0000
0000
0000
;
